<?xml version="1.0" standalone="no"?>
<!DOCTYPE svg PUBLIC "-//W3C//DTD SVG 1.1//EN" "http://www.w3.org/Graphics/SVG/1.1/DTD/svg11.dtd" >
<svg xmlns="http://www.w3.org/2000/svg" xmlns:xlink="http://www.w3.org/1999/xlink" version="1.1">
<metadata>
Created by FontForge 20170731 at Tue Jun 16 09:16:23 2020
 By Aleksey,,,
Copyright (c) 2018 by Christoph York. All rights reserved. Modification of this file requires prior written permission from Brink Type.
</metadata>
<defs>
<font id="BROmny-Bold" horiz-adv-x="600" >
  <font-face 
    font-family="BROmny-Bold"
    font-weight="400"
    font-stretch="normal"
    units-per-em="1000"
    panose-1="0 0 8 0 0 0 0 0 0 0"
    ascent="800"
    descent="-200"
    x-height="483"
    cap-height="700"
    bbox="-497 -264 1293 1018"
    underline-thickness="50"
    underline-position="-200"
    unicode-range="U+000D-2B51"
  />
<missing-glyph horiz-adv-x="720" 
d="M88 700h544q16 0 16 -16v-668q0 -16 -16 -16h-544q-16 0 -16 16v668q0 16 16 16zM227 454q4 -5 12 -5h39q14 0 17 15q12 60 75 60q60 0 60 -52q0 -27 -32 -54l-31 -26q-32 -27 -42 -45.5t-10 -52.5v-17q0 -16 16 -16h38q16 0 16 16v15q0 20 5 30.5t23 25.5l30 25
q58 48 58 101t-36 84.5t-97 31.5q-62 0 -99.5 -33t-45.5 -91v-2q0 -6 4 -10zM300 155q0 -22 14 -36t35 -14q23 0 37 14t14 36t-14 36t-37 14q-21 0 -35 -14t-14 -36z" />
    <glyph glyph-name=".notdef" horiz-adv-x="720" 
d="M88 700h544q16 0 16 -16v-668q0 -16 -16 -16h-544q-16 0 -16 16v668q0 16 16 16zM227 454q4 -5 12 -5h39q14 0 17 15q12 60 75 60q60 0 60 -52q0 -27 -32 -54l-31 -26q-32 -27 -42 -45.5t-10 -52.5v-17q0 -16 16 -16h38q16 0 16 16v15q0 20 5 30.5t23 25.5l30 25
q58 48 58 101t-36 84.5t-97 31.5q-62 0 -99.5 -33t-45.5 -91v-2q0 -6 4 -10zM300 155q0 -22 14 -36t35 -14q23 0 37 14t14 36t-14 36t-37 14q-21 0 -35 -14t-14 -36z" />
    <glyph glyph-name=".null" horiz-adv-x="0" 
 />
    <glyph glyph-name="uni000D" horiz-adv-x="333" 
 />
    <glyph glyph-name="uni000D.1" unicode="&#xd;" horiz-adv-x="234" 
 />
    <glyph glyph-name="space" unicode=" " horiz-adv-x="234" 
 />
    <glyph glyph-name="exclam" unicode="!" horiz-adv-x="314" 
d="M74 684q0 16 16 16h134q16 0 16 -16l-13 -426q0 -16 -17 -16h-106q-17 0 -17 16zM61 84q0 43 26.5 69.5t69.5 26.5t69.5 -26.5t26.5 -69.5q0 -42 -26 -68q-27 -26 -70 -26t-69.5 26t-26.5 68z" />
    <glyph glyph-name="quotedbl" unicode="&#x22;" horiz-adv-x="500" 
d="M71 713h131q17 0 17 -16v-2l-19 -261q-1 -15 -16 -15h-95q-15 0 -16 15l-19 261v3q0 15 17 15zM298 713h131q17 0 17 -15v-3l-19 -261q-1 -15 -16 -15h-95q-15 0 -16 15l-18 261v3q0 15 16 15z" />
    <glyph glyph-name="numbersign" unicode="#" horiz-adv-x="766" 
d="M95 288h95v124h-95q-17 0 -17 16v79q0 17 17 17h95v128q0 17 16 17h93q16 0 16 -17v-128h136v128q0 17 16 17h93q17 0 17 -17v-128h94q17 0 17 -17v-79q0 -16 -17 -16h-94v-124h94q17 0 17 -16v-79q0 -17 -17 -17h-94v-128q0 -17 -17 -17h-93q-16 0 -16 17v128h-136v-128
q0 -17 -16 -17h-93q-16 0 -16 17v128h-95q-17 0 -17 17v79q0 16 17 16zM451 288v124h-136v-124h136z" />
    <glyph glyph-name="dollar" unicode="$" horiz-adv-x="573" 
d="M61 238h115q13 0 18 -15q13 -54 95 -54q93 0 93 59q0 51 -88 64l-65 10q-183 28 -183 173q0 70 46 117.5t131 60.5v54q0 17 17 17h94q16 0 16 -17v-55q78 -13 121.5 -57.5t49.5 -113.5v-5q0 -12 -15 -12h-116q-14 0 -17 16q-9 52 -90 52q-91 0 -91 -57q0 -23 22 -35.5
t77 -21.5l65 -11q174 -28 174 -173q0 -78 -47 -126t-133 -60v-55q0 -17 -16 -17h-94q-17 0 -17 17v56q-80 13 -125 57.5t-53 113.5v5q0 13 16 13z" />
    <glyph glyph-name="percent" unicode="%" horiz-adv-x="906" 
d="M495 173q0 81 54.5 134t135.5 53q82 0 136 -53t54 -134q0 -80 -54 -133t-136 -53q-81 0 -135.5 53t-54.5 133zM31 527q0 80 54.5 133t135.5 53t135.5 -53t54.5 -133q0 -81 -54 -134q-55 -53 -136 -53t-135.5 53t-54.5 134zM182 20l415 669q5 11 19 11h97q14 0 14 -8
q0 -5 -4 -12l-414 -669q-5 -11 -19 -11h-97q-14 0 -14 9q0 5 3 11zM615 173q0 -33 20 -53q19 -20 50 -20t50.5 20t19.5 53t-19.5 53t-50.5 20t-50.5 -20t-19.5 -53zM171 474q19 -20 50 -20t50.5 20t19.5 53t-19.5 53t-50.5 20t-50.5 -20t-19.5 -53t20 -53z" />
    <glyph glyph-name="ampersand" unicode="&#x26;" horiz-adv-x="718" 
d="M49 184q0 115 140 201q-71 84 -71 157q0 74 56 122.5t150 48.5q92 0 147 -45.5t55 -119.5q0 -107 -134 -187l-6 -4l96 -110q15 37 21 88q3 15 17 15h108q14 0 14 -17v-6q-17 -115 -63 -190l102 -117q5 -6 5 -10q0 -2 -2 -6t-12 -4h-125q-14 0 -20 9l-32 37
q-81 -59 -197 -59q-115 0 -182 55t-67 142zM203 196q0 -36 28.5 -56.5t76.5 -20.5q52 0 93 24l-131 149q-67 -41 -67 -96zM301 454l7 -8l11 6q68 38 68 82q0 26 -18 42q-18 15 -46 15t-46 -15.5t-18 -40.5q0 -33 42 -81z" />
    <glyph glyph-name="quotesingle" unicode="'" horiz-adv-x="273" 
d="M71 713h131q17 0 17 -16v-2l-19 -261q-1 -15 -16 -15h-95q-15 0 -16 15l-19 261v3q0 15 17 15z" />
    <glyph glyph-name="parenleft" unicode="(" horiz-adv-x="361" 
d="M59 327q0 119 39 235t109 204q6 6 13 6q5 0 10 -3l88 -52q9 -5 9 -12q0 -5 -4 -10q-54 -73 -84.5 -169.5t-30.5 -198.5t31 -199t84 -169q3 -5 3 -10q0 -7 -8 -13l-88 -52q-5 -3 -10 -3q-7 0 -13 7q-70 88 -109 204t-39 235z" />
    <glyph glyph-name="parenright" unicode=")" horiz-adv-x="361" 
d="M43 717l88 52q5 3 10 3q7 0 13 -6q70 -88 109 -204t39 -235t-39 -235t-109 -204q-6 -7 -13 -7q-5 0 -10 3l-88 52q-8 6 -8 13q0 5 3 10q53 72 84 169t31 199t-30.5 198.5t-84.5 169.5q-4 5 -4 10q0 7 9 12z" />
    <glyph glyph-name="asterisk" unicode="*" horiz-adv-x="554" 
d="M67 531l26 80q3 12 13 12q3 0 8 -2l110 -41l-6 118q0 16 16 16h86q15 0 15 -14v-2l-5 -118l110 41q5 2 8 2q9 0 13 -12l26 -81q1 -3 1 -6q0 -11 -12 -15l-112 -30l73 -92q5 -6 5 -11q0 -7 -8 -12l-70 -51q-5 -4 -9 -4q-7 0 -13 8l-65 99l-66 -99q-5 -8 -11 -8q-5 0 -10 4
l-70 51q-7 5 -7 12q0 5 5 11l73 92l-114 31q-12 4 -12 13q0 4 2 8z" />
    <glyph glyph-name="plus" unicode="+" 
d="M89 384h140v153q0 16 17 16h108q17 0 17 -16v-153h140q16 0 16 -17v-100q0 -17 -16 -17h-140v-153q0 -16 -17 -16h-108q-17 0 -17 16v153h-140q-16 0 -16 17v100q0 17 16 17z" />
    <glyph glyph-name="comma" unicode="," horiz-adv-x="277" 
d="M30 -139l52 294q2 15 17 15h116q15 0 15 -11q0 -3 -1 -7l-78 -294q-5 -14 -18 -14h-88q-15 0 -15 12v5z" />
    <glyph glyph-name="hyphen" unicode="-" horiz-adv-x="373" 
d="M55 340h264q17 0 17 -16v-102q0 -17 -17 -17h-264q-17 0 -17 17v102q0 16 17 16z" />
    <glyph glyph-name="period" unicode="." horiz-adv-x="274" 
d="M42 84q0 43 26 69.5t69 26.5t69.5 -26.5t26.5 -69.5q0 -42 -26 -68q-27 -26 -70 -26t-69 26t-26 68z" />
    <glyph glyph-name="slash" unicode="/" horiz-adv-x="522" 
d="M19 -56l335 757q6 12 19 12h118q14 0 14 -10q0 -4 -2 -10l-336 -756q-4 -12 -19 -12h-117q-9 0 -11.5 4t-2.5 7q0 4 2 8z" />
    <glyph glyph-name="zero" unicode="0" horiz-adv-x="679" 
d="M44 350q0 170 79.5 266.5t216.5 96.5t216 -96t79 -267t-79 -267t-216 -96t-216.5 96.5t-79.5 266.5zM205 350q0 -217 135 -217q64 0 99 54t35 163t-35 163t-99 54q-135 0 -135 -217z" />
    <glyph glyph-name="one" unicode="1" horiz-adv-x="418" 
d="M33 469v124q0 13 12 19l143 82q8 6 21 6h114q16 0 16 -16v-668q0 -16 -16 -16h-125q-17 0 -17 16v515l-128 -74q-5 -3 -9 -3q-3 0 -7 2.5t-4 12.5z" />
    <glyph glyph-name="two" unicode="2" horiz-adv-x="581" 
d="M77 239q37 62 141 113l84 41q87 45 87 103q0 33 -22.5 52.5t-62.5 19.5q-43 0 -69.5 -23t-31.5 -65q-2 -17 -16 -17h-129q-16 0 -16 14v3q5 109 73.5 171t185.5 62q114 0 179.5 -58t65.5 -158q0 -72 -38 -124t-125 -94l-84 -40q-46 -24 -67 -44.5t-28 -50.5h320
q17 0 17 -17v-111q0 -16 -17 -16h-468q-17 0 -17 16v43q0 118 38 180z" />
    <glyph glyph-name="three" unicode="3" horiz-adv-x="595" 
d="M54 224h127q15 0 18 -15q14 -77 102 -77q46 0 72.5 21.5t26.5 56.5t-26.5 54.5t-77.5 19.5h-43q-16 0 -16 17v109q0 16 16 16h40q44 0 70 20.5t26 53.5q0 32 -23.5 50.5t-64.5 18.5q-85 0 -97 -78q-2 -15 -16 -15h-128q-16 0 -16 14v2q8 106 74.5 163.5t181.5 57.5
t181.5 -53.5t66.5 -141.5q0 -56 -28.5 -98t-83.5 -60v-4q60 -16 92.5 -59.5t32.5 -104.5q0 -90 -69.5 -147.5t-191.5 -57.5q-119 0 -187 57t-75 163v3q0 14 16 14z" />
    <glyph glyph-name="four" unicode="4" horiz-adv-x="623" 
d="M26 148v101q0 9 6 20l304 421q7 10 21 10h146q16 0 16 -16v-416h61q17 0 17 -17v-103q0 -16 -17 -16h-61v-116q0 -16 -16 -16h-118q-16 0 -16 16v116h-327q-16 0 -16 16zM369 268v239h-3l-173 -239h176z" />
    <glyph glyph-name="five" unicode="5" horiz-adv-x="597" 
d="M54 210h125q14 0 18 -14q8 -30 35.5 -48t67.5 -18q51 0 80.5 29.5t29.5 77.5q0 47 -28 75t-76 28q-61 0 -96 -40q-9 -10 -20 -10h-129q-15 0 -15 14v3l48 378q2 15 17 15h399q17 0 17 -16v-109q0 -17 -17 -17h-288l-15 -113q51 25 118 25q107 0 175 -64.5t68 -171.5
q0 -111 -73.5 -179t-195.5 -68q-110 0 -180.5 56t-79.5 151v3q0 13 15 13z" />
    <glyph glyph-name="six" unicode="6" horiz-adv-x="624" 
d="M120 617q76 96 217 96q100 0 163 -47.5t80 -136.5v-5q0 -13 -15 -13h-124q-14 0 -18 13q-19 51 -88 51q-117 0 -132 -170h3q55 58 147 58q105 0 172.5 -66.5t67.5 -169.5q0 -107 -72.5 -173.5t-194.5 -66.5q-118 0 -191 68q-91 86 -91 281q0 185 76 281zM245 150
q30 -29 80 -29t80 29t30 77t-30 77t-80 29t-80 -28.5t-30 -77.5t30 -77z" />
    <glyph glyph-name="seven" unicode="7" horiz-adv-x="526" 
d="M23 684q0 16 17 16h446q16 0 16 -16v-101q0 -12 -4 -21l-252 -550q-4 -12 -19 -12h-131q-15 0 -15 10q0 4 2 10l246 534h-289q-17 0 -17 17v113z" />
    <glyph glyph-name="eight" unicode="8" horiz-adv-x="623" 
d="M69 297q30 45 89 68v3q-101 45 -101 152q0 85 67 139t188 54t188 -54t67 -139q0 -107 -101 -152v-3q59 -23 89 -68.5t30 -102.5q0 -93 -73 -150t-200 -57q-128 0 -201 57t-73 150q0 57 31 103zM228 145q29 -23 84 -23q54 0 83 23t29 62t-29 62t-83 23q-55 0 -84 -23
t-29 -62t29 -62zM240 444q25 -21 72 -21q46 0 71.5 21t25.5 56q0 36 -25.5 57t-71.5 21q-47 0 -72.5 -21t-25.5 -57q0 -35 26 -56z" />
    <glyph glyph-name="nine" unicode="9" horiz-adv-x="627" 
d="M36 473q0 105 72.5 172.5t192.5 67.5q119 0 192 -70q89 -84 89 -279q0 -185 -75 -281t-217 -96q-101 0 -164 47.5t-79 136.5v5q0 13 15 13h125q12 0 18 -14q18 -50 88 -50q58 0 91 40.5t40 131.5h-2q-53 -58 -147 -58q-105 0 -172 65.5t-67 168.5zM193 472q0 -48 30 -77
t79 -29q50 0 80.5 29.5t30.5 77.5q0 47 -30.5 76t-79.5 29q-50 0 -80 -29t-30 -77z" />
    <glyph glyph-name="colon" unicode=":" horiz-adv-x="294" 
d="M52 84q0 43 26 69.5t69 26.5t69.5 -26.5t26.5 -69.5q0 -42 -26 -68q-27 -26 -70 -26t-69 26t-26 68zM52 393q0 42 26.5 69t68.5 27q43 0 69.5 -27t26.5 -69t-26 -68q-27 -26 -70 -26t-69 26t-26 68z" />
    <glyph glyph-name="semicolon" unicode=";" horiz-adv-x="302" 
d="M34 -139l52 294q2 15 17 15h116q15 0 15 -11q0 -3 -1 -7l-78 -294q-5 -14 -18 -14h-88q-15 0 -15 12v5zM59 393q0 42 26.5 69t69.5 27t69.5 -27t26.5 -69t-26 -68q-27 -26 -70 -26t-69.5 26t-26.5 68z" />
    <glyph glyph-name="less" unicode="&#x3c;" 
d="M86 388l423 158q5 2 8 2q10 0 10 -15v-107q0 -14 -13 -18l-251 -89v-4l251 -89q13 -4 13 -18v-107q0 -15 -10 -15q-3 0 -8 2l-423 158q-13 4 -13 18v106q0 14 13 18z" />
    <glyph glyph-name="equal" unicode="=" 
d="M73 467q0 17 16 17h422q16 0 16 -17v-93q0 -17 -16 -17h-422q-16 0 -16 17v93zM89 271h422q16 0 16 -16v-94q0 -16 -16 -16h-422q-16 0 -16 16v94q0 16 16 16z" />
    <glyph glyph-name="greater" unicode="&#x3e;" 
d="M73 208q0 14 13 18l251 89v4l-251 89q-13 4 -13 18v107q0 15 10 15q3 0 8 -2l423 -158q13 -4 13 -18v-106q0 -14 -13 -18l-423 -158q-5 -2 -8 -2q-10 0 -10 15v107z" />
    <glyph glyph-name="question" unicode="?" horiz-adv-x="503" 
d="M33 508q7 99 64.5 152t159.5 53q98 0 154 -48t56 -130q0 -42 -19 -78t-67 -77l-41 -33q-23 -20 -29.5 -32.5t-6.5 -36.5v-22q0 -17 -17 -17h-111q-16 0 -16 17v30q0 49 14.5 75.5t64.5 69.5l45 38q38 31 38 61q0 52 -62 52q-74 0 -84 -75q-1 -16 -17 -16h-109
q-17 0 -17 17zM137 84q0 43 26.5 69.5t69.5 26.5t69.5 -26.5t26.5 -69.5q0 -42 -26 -68q-27 -26 -70 -26t-69.5 26t-26.5 68z" />
    <glyph glyph-name="at" unicode="@" horiz-adv-x="977" 
d="M176 544q132 126 327 126q184 0 310 -111.5t126 -282.5q0 -114 -57 -186.5t-148 -72.5q-48 0 -85 22t-53 59q-15 -37 -50 -57t-83 -20q-81 0 -133.5 56t-52.5 146t52.5 147t134.5 57q83 0 110 -56h3v25q0 17 17 17h78q16 0 16 -17v-203q0 -33 13 -50t35 -17
q33 0 54.5 35.5t21.5 100.5q0 132 -87 208.5t-222 76.5q-146 0 -237.5 -89.5t-91.5 -233.5t91.5 -228.5t251.5 -84.5q100 0 206 40q5 1 8 1q11 0 11 -14v-88q0 -13 -9 -18q-92 -43 -222 -43q-208 0 -337.5 120t-129.5 313q0 196 132 322zM412 223q0 -39 22 -62t56 -23
q35 0 57 23t22 62q0 40 -22 63t-57 23q-34 0 -56 -23t-22 -63z" />
    <glyph glyph-name="A" unicode="A" horiz-adv-x="742" 
d="M15 19l261 668q4 13 19 13h150q16 0 20 -13l262 -668q1 -5 1 -8q0 -11 -14 -11h-136q-14 0 -18 13l-40 109h-299l-40 -109q-4 -13 -19 -13h-134q-15 0 -15 10q0 4 2 9zM467 265l-95 258h-3l-95 -258h193z" />
    <glyph glyph-name="B" unicode="B" horiz-adv-x="678" 
d="M88 700h254q125 0 189.5 -49.5t64.5 -139.5q0 -110 -89 -147v-2q64 -11 100 -53.5t36 -112.5q0 -93 -65 -144.5t-190 -51.5h-300q-16 0 -16 16v668q0 16 16 16zM372 133q57 0 81 19t24 61t-24.5 60.5t-80.5 18.5h-140v-159h140zM232 567v-144h102q52 0 75 18q23 17 23 54
t-23 54.5t-75 17.5h-102z" />
    <glyph glyph-name="C" unicode="C" horiz-adv-x="802" 
d="M148 608q104 105 262 105q131 0 226.5 -74t118.5 -203v-5q0 -13 -14 -13h-135q-15 0 -18 14q-17 63 -63.5 96t-113.5 33q-91 0 -146 -58t-55 -153t55 -153t146 -58q67 0 113.5 33t63.5 96q3 14 18 14h135q14 0 14 -14v-5q-23 -129 -118.5 -202.5t-226.5 -73.5
q-158 0 -262 105t-104 258t104 258z" />
    <glyph glyph-name="D" unicode="D" horiz-adv-x="724" 
d="M72 16v668q0 16 16 16h236q157 0 256.5 -97.5t99.5 -252.5t-99.5 -252.5t-256.5 -97.5h-236q-16 0 -16 16zM321 150q89 0 140.5 53.5t51.5 146.5t-51.5 146.5t-140.5 53.5h-87v-400h87z" />
    <glyph glyph-name="E" unicode="E" horiz-adv-x="617" 
d="M88 700h465q16 0 16 -16v-116q0 -17 -16 -17h-319v-128h249q16 0 16 -17v-112q0 -17 -16 -17h-249v-128h323q16 0 16 -17v-116q0 -16 -16 -16h-469q-16 0 -16 16v668q0 16 16 16z" />
    <glyph glyph-name="F" unicode="F" horiz-adv-x="599" 
d="M72 16v668q0 16 16 16h462q16 0 16 -16v-118q0 -16 -16 -16h-316v-146h273q16 0 16 -16v-117q0 -17 -16 -17h-273v-238q0 -16 -17 -16h-129q-16 0 -16 16z" />
    <glyph glyph-name="G" unicode="G" horiz-adv-x="805" 
d="M149 609q104 104 263 104q122 0 213 -63.5t118 -166.5q1 -4 1 -7q0 -11 -15 -11h-142q-13 0 -19 13q-17 39 -58.5 61.5t-97.5 22.5q-92 0 -147 -57.5t-55 -154.5q0 -98 56 -155t152 -57q74 0 121.5 35.5t60.5 100.5h-170q-17 0 -17 16v92q0 17 17 17h314q17 0 17 -17v-50
q0 -154 -98 -249.5t-250 -95.5q-160 0 -264.5 104t-104.5 259q0 154 105 259z" />
    <glyph glyph-name="H" unicode="H" horiz-adv-x="745" 
d="M88 700h129q17 0 17 -16v-270h278v270q0 16 16 16h129q16 0 16 -16v-668q0 -16 -16 -16h-129q-16 0 -16 16v247h-278v-247q0 -16 -17 -16h-129q-16 0 -16 16v668q0 16 16 16z" />
    <glyph glyph-name="I" unicode="I" horiz-adv-x="306" 
d="M88 700h129q17 0 17 -16v-668q0 -16 -17 -16h-129q-16 0 -16 16v668q0 16 16 16z" />
    <glyph glyph-name="J" unicode="J" horiz-adv-x="643" 
d="M44 325q0 16 16 16h131q17 0 17 -16v-68q0 -62 25 -90t77 -28q105 0 105 118v294h-257q-16 0 -16 16v117q0 16 16 16h402q17 0 17 -16v-436q0 -126 -69 -193.5t-198 -67.5q-128 0 -197 67t-69 190v81z" />
    <glyph glyph-name="K" unicode="K" horiz-adv-x="708" 
d="M72 684q0 16 16 16h129q17 0 17 -16v-305h60l185 310q5 11 20 11h152q10 0 12 -4t2 -6q0 -4 -3 -10l-201 -335q179 -79 213 -327v-3q0 -15 -16 -15h-145q-14 0 -17 15q-18 114 -71.5 161.5t-155.5 47.5h-35v-208q0 -16 -17 -16h-129q-16 0 -16 16v668z" />
    <glyph glyph-name="L" unicode="L" horiz-adv-x="575" 
d="M88 700h129q17 0 17 -16v-534h299q16 0 16 -16v-118q0 -16 -16 -16h-445q-16 0 -16 16v668q0 16 16 16z" />
    <glyph glyph-name="M" unicode="M" horiz-adv-x="915" 
d="M88 700h149q15 0 20 -12l199 -356h3l198 356q5 12 20 12h149q17 0 17 -16v-668q0 -16 -17 -16h-128q-16 0 -16 16v417h-3l-155 -271q-5 -12 -19 -12h-95q-14 0 -19 12l-156 271h-2v-417q0 -16 -16 -16h-129q-16 0 -16 16v668q0 16 16 16z" />
    <glyph glyph-name="N" unicode="N" horiz-adv-x="768" 
d="M88 700h125q14 0 21 -10l298 -420h2v414q0 16 16 16h129q17 0 17 -16v-668q0 -16 -17 -16h-126q-13 0 -20 10l-298 419h-1v-413q0 -16 -17 -16h-129q-16 0 -16 16v668q0 16 16 16z" />
    <glyph glyph-name="O" unicode="O" horiz-adv-x="818" 
d="M44 350q0 154 105 258.5t260 104.5t260 -104.5t105 -258.5t-105 -258q-105 -105 -260 -105t-260 104.5t-105 258.5zM210 350q0 -92 55 -151q55 -60 144 -60t144 59.5t55 151.5t-55 151.5t-144 59.5t-144 -59.5t-55 -151.5z" />
    <glyph glyph-name="P" unicode="P" horiz-adv-x="662" 
d="M72 16v668q0 16 16 16h271q130 0 201.5 -64.5t71.5 -181.5t-71.5 -182t-201.5 -65h-125v-191q0 -16 -17 -16h-129q-16 0 -16 16zM355 357q110 0 110 97t-110 97h-121v-194h121z" />
    <glyph glyph-name="Q" unicode="Q" horiz-adv-x="818" 
d="M149 609q105 104 260 104t260 -104.5t105 -258.5q0 -151 -101 -255l85 -109q5 -5 5 -10q0 -7 -8 -13l-100 -74q-5 -4 -10 -4q-7 0 -13 7l-92 117q-64 -22 -131 -22q-155 0 -260 104.5t-105 258.5t105 259zM210 350q0 -92 55 -151.5t144 -59.5q10 0 28 2l-76 96
q-4 5 -4 10q0 7 8 13l100 75q5 4 10 4q7 0 13 -7l85 -109q35 56 35 127q0 92 -55 151.5t-144 59.5t-144 -59q-55 -60 -55 -152z" />
    <glyph glyph-name="R" unicode="R" horiz-adv-x="692" 
d="M72 16v668q0 16 16 16h274q129 0 201 -64t72 -177q0 -71 -30 -125.5t-86 -83.5q97 -69 123 -232v-5q0 -13 -15 -13h-145q-15 0 -18 15q-21 110 -65.5 155t-125.5 45h-39v-199q0 -16 -17 -16h-129q-16 0 -16 16zM234 366h124q111 0 111 93q0 92 -111 92h-124v-185z" />
    <glyph glyph-name="S" unicode="S" horiz-adv-x="634" 
d="M56 217h128q14 0 18 -15q18 -74 120 -74q56 0 84.5 20t28.5 56q0 62 -93 77l-99 16q-201 33 -201 201q0 99 70.5 157t200.5 58q126 0 196 -55t79 -158v-5q0 -12 -15 -12h-129q-14 0 -17 16q-10 73 -114 73q-108 0 -108 -73q0 -29 23 -46t83 -26l99 -16q187 -30 187 -201
q0 -107 -72 -165t-202 -58q-127 0 -199.5 55t-83.5 157v5q0 13 16 13z" />
    <glyph glyph-name="T" unicode="T" horiz-adv-x="593" 
d="M19 684q0 16 17 16h522q16 0 16 -16v-118q0 -16 -16 -16h-181v-534q0 -16 -16 -16h-129q-16 0 -16 16v534h-180q-17 0 -17 16v118z" />
    <glyph glyph-name="U" unicode="U" horiz-adv-x="719" 
d="M82 700h129q17 0 17 -16v-389q0 -79 32.5 -116t98.5 -37t99 37t33 116v389q0 16 16 16h129q17 0 17 -16v-400q0 -142 -77 -219q-77 -78 -217 -78t-216.5 77.5t-76.5 219.5v400q0 16 16 16z" />
    <glyph glyph-name="V" unicode="V" horiz-adv-x="698" 
d="M27 700h139q15 0 19 -13l163 -465h2l163 465q4 13 19 13h139q14 0 14 -11q0 -3 -1 -8l-250 -668q-4 -13 -18 -13h-134q-14 0 -18 13l-250 668q-1 5 -1 8q0 11 14 11z" />
    <glyph glyph-name="W" unicode="W" horiz-adv-x="1057" 
d="M32 700h138q15 0 18 -14l129 -437h3l131 437q3 14 19 14h118q15 0 18 -14l132 -437h3l129 437q3 14 18 14h137q15 0 15 -12q0 -3 -1 -7l-207 -667q-3 -14 -18 -14h-132q-15 0 -18 14l-133 429h-4l-132 -429q-5 -14 -19 -14h-132q-15 0 -18 14l-207 667q-1 5 -1 8
q0 11 14 11z" />
    <glyph glyph-name="X" unicode="X" horiz-adv-x="678" 
d="M25 20l217 349l-207 311q-3 5 -3 9q0 3 2 7t12 4h147q13 0 19 -11l126 -195h3l124 195q7 11 20 11h147q10 0 12 -4t2 -7q0 -4 -3 -9l-207 -312l217 -348q3 -6 3 -10q0 -2 -2 -6t-12 -4h-149q-13 0 -20 11l-132 217h-3l-133 -217q-5 -11 -19 -11h-151q-14 0 -14 8
q0 5 4 12z" />
    <glyph glyph-name="Y" unicode="Y" horiz-adv-x="682" 
d="M12 695q3 5 13 5h147q13 0 20 -12l148 -264h2l149 264q5 12 19 12h147q10 0 12 -4t2 -6q0 -4 -3 -10l-245 -414v-250q0 -16 -16 -16h-132q-16 0 -16 16v250l-245 414q-3 6 -3 10q0 3 1 5z" />
    <glyph glyph-name="Z" unicode="Z" horiz-adv-x="616" 
d="M48 128l313 423h-300q-16 0 -16 17v116q0 16 16 16h495q16 0 16 -16v-92q0 -10 -6 -20l-314 -423h307q16 0 16 -17v-116q0 -16 -16 -16h-501q-17 0 -17 16v92q0 10 7 20z" />
    <glyph glyph-name="bracketleft" unicode="[" horiz-adv-x="386" 
d="M72 752q0 16 16 16h245q16 0 16 -16v-99q0 -16 -16 -16h-115v-620h115q16 0 16 -16v-99q0 -16 -16 -16h-245q-16 0 -16 16v850z" />
    <glyph glyph-name="backslash" unicode="\" horiz-adv-x="522" 
d="M31 713h118q13 0 19 -12l335 -757q2 -4 2 -8q0 -3 -2.5 -7t-11.5 -4h-117q-15 0 -19 12l-336 756q-2 6 -2 10q0 10 14 10z" />
    <glyph glyph-name="bracketright" unicode="]" horiz-adv-x="386" 
d="M37 752q0 16 16 16h245q16 0 16 -16v-850q0 -16 -16 -16h-245q-16 0 -16 16v99q0 16 16 16h115v620h-115q-16 0 -16 16v99z" />
    <glyph glyph-name="asciicircum" unicode="^" horiz-adv-x="596" 
d="M35 360l180 328q6 12 19 12h128q12 0 20 -12l179 -328q2 -5 2 -8t-2 -7.5t-11 -4.5h-129q-11 0 -19 12l-102 190h-4l-102 -190q-6 -12 -19 -12h-129q-9 0 -11 4.5t-2 7.5t2 8z" />
    <glyph glyph-name="underscore" unicode="_" horiz-adv-x="459" 
d="M26 -43h406q17 0 17 -17v-83q0 -17 -17 -17h-406q-16 0 -16 17v83q0 17 16 17z" />
    <glyph glyph-name="grave" unicode="`" 
d="M104 709q3 6 13 6h135q12 0 20 -11l83 -134q4 -7 4 -11q0 -8 -15 -8h-110q-14 0 -20 10l-106 134q-5 6 -5 10q0 2 1 4z" />
    <glyph glyph-name="a" unicode="a" horiz-adv-x="614" 
d="M99 424q64 72 164 72q101 0 142 -72h3v42q0 17 16 17h116q16 0 16 -17v-450q0 -16 -16 -16h-116q-16 0 -16 16v43h-2q-42 -72 -143 -72q-100 0 -164 72t-64 182q0 111 64 183zM220 158q30 -33 80 -33t80.5 32.5t30.5 83.5q0 52 -30.5 84t-80.5 32t-80 -32
q-30 -33 -30 -84t30 -83z" />
    <glyph glyph-name="b" unicode="b" horiz-adv-x="616" 
d="M74 700h119q17 0 17 -16v-260h4q41 72 141 72q98 0 162 -72t64 -183q0 -110 -64.5 -182t-163.5 -72q-101 0 -142 72h-4v-43q0 -16 -16 -16h-117q-16 0 -16 16v668q0 16 16 16zM205 241q0 -51 30 -83.5t80 -32.5q51 0 81 32.5t30 83.5q0 52 -30 84t-81 32q-50 0 -80 -32
t-30 -84z" />
    <glyph glyph-name="c" unicode="c" horiz-adv-x="580" 
d="M107 424q71 72 188 72q99 0 167 -54t81 -142v-5q0 -13 -15 -13h-123q-13 0 -18 15q-18 60 -91 60q-49 0 -77.5 -31.5t-28.5 -84.5t28.5 -84.5t77.5 -31.5q71 0 90 61q5 14 19 14h122q16 0 16 -12v-4q-13 -89 -80.5 -143t-167.5 -54q-116 0 -188 72.5t-72 181.5
q0 110 72 183z" />
    <glyph glyph-name="d" unicode="d" horiz-adv-x="617" 
d="M99 424q64 72 162 72q100 0 141 -72h5v260q0 16 16 16h119q17 0 17 -16v-668q0 -16 -17 -16h-117q-16 0 -16 16v43h-3q-42 -72 -143 -72q-99 0 -163.5 72t-64.5 182q0 111 64 183zM221 158q30 -33 80 -33t80.5 32.5t30.5 83.5q0 52 -30.5 84t-80.5 32t-80.5 -32
t-30.5 -84q0 -51 31 -83z" />
    <glyph glyph-name="e" unicode="e" horiz-adv-x="586" 
d="M35 240q0 111 72.5 183.5t187.5 72.5q113 0 184.5 -70.5t71.5 -184.5v-16q0 -25 -24 -25h-341q16 -95 115 -95q70 0 92 40q7 13 18 13h112q8 0 12 -3.5t4 -6.5q0 -2 -1 -4q-20 -70 -83 -113.5t-156 -43.5q-119 0 -191.5 71t-72.5 182zM188 293h210q-17 86 -101 86
q-88 0 -109 -86z" />
    <glyph glyph-name="f" unicode="f" horiz-adv-x="420" 
d="M34 483h78v23q0 107 49.5 159.5t151.5 52.5q44 0 85 -11q13 -4 13 -18v-97q0 -15 -12 -15h-5q-21 4 -46 4q-47 0 -65.5 -17.5t-18.5 -60.5v-20h123q16 0 16 -17v-98q0 -17 -16 -17h-123v-335q0 -16 -17 -16h-119q-16 0 -16 16v335h-78q-17 0 -17 17v98q0 17 17 17z" />
    <glyph glyph-name="g" unicode="g" horiz-adv-x="614" 
d="M100 425q64 71 162 71q102 0 143 -72h4v42q0 17 16 17h115q16 0 16 -17v-454q0 -113 -70 -177t-194 -64q-105 0 -171 47t-77 128v4q0 13 16 13h115q13 0 18 -14q17 -53 100 -53q118 0 118 116v61h-5q-42 -71 -144 -71q-98 0 -162.5 67.5t-64.5 175.5q0 109 65 180z
M190 244q0 -49 30 -81t80 -32t80.5 31.5t30.5 81.5t-30.5 82t-80.5 32t-80 -32t-30 -82z" />
    <glyph glyph-name="h" unicode="h" horiz-adv-x="593" 
d="M58 16v668q0 16 16 16h119q17 0 17 -16v-265h3q40 77 145 77q85 0 133.5 -53.5t48.5 -148.5v-278q0 -16 -16 -16h-120q-16 0 -16 16v239q0 101 -85 101q-44 0 -68.5 -26t-24.5 -76v-238q0 -16 -17 -16h-119q-16 0 -16 16z" />
    <glyph glyph-name="i" unicode="i" horiz-adv-x="267" 
d="M58 466q0 17 16 17h119q17 0 17 -17v-450q0 -16 -17 -16h-119q-16 0 -16 16v450zM66 705q26 26 68 26q41 0 67.5 -26t26.5 -66t-26.5 -66t-67.5 -26q-42 0 -68.5 25.5t-26.5 66.5q0 40 27 66z" />
    <glyph glyph-name="j" unicode="j" horiz-adv-x="267" 
d="M-42 -88q3 0 11 -0.5t12 -0.5q42 0 59.5 18t17.5 65v472q0 17 16 17h119q17 0 17 -17v-485q0 -109 -46.5 -159.5t-142.5 -50.5q-39 0 -67 7q-14 3 -14 17v103q0 14 13 14h5zM39 639q0 40 26.5 66t68.5 26q41 0 67.5 -26t26.5 -66t-26.5 -66t-67.5 -26q-42 0 -68.5 25.5
t-26.5 66.5z" />
    <glyph glyph-name="k" unicode="k" horiz-adv-x="577" 
d="M58 684q0 16 16 16h119q17 0 17 -16v-381h49l111 169q8 11 20 11h141q10 0 12 -4t2 -7q0 -4 -3 -9l-134 -199q120 -71 145 -246v-5q0 -13 -15 -13h-128q-15 0 -18 15q-15 82 -53 116t-111 34h-18v-149q0 -16 -17 -16h-119q-16 0 -16 16v668z" />
    <glyph glyph-name="l" unicode="l" horiz-adv-x="267" 
d="M74 700h119q17 0 17 -16v-668q0 -16 -17 -16h-119q-16 0 -16 16v668q0 16 16 16z" />
    <glyph glyph-name="m" unicode="m" horiz-adv-x="880" 
d="M58 466q0 17 16 17h114q17 0 17 -17v-48h3q39 78 138 78q101 0 144 -85h4q22 39 64.5 62t95.5 23q81 0 127 -53t46 -148v-279q0 -16 -16 -16h-119q-17 0 -17 16v240q0 100 -74 100q-38 0 -60 -25.5t-22 -75.5v-239q0 -16 -17 -16h-119q-16 0 -16 16v240q0 100 -75 100
q-38 0 -60 -25.5t-22 -75.5v-239q0 -16 -17 -16h-119q-16 0 -16 16v450z" />
    <glyph glyph-name="n" unicode="n" horiz-adv-x="593" 
d="M74 483h116q17 0 17 -17v-47h2q40 77 148 77q86 0 134.5 -53.5t48.5 -148.5v-278q0 -16 -16 -16h-120q-16 0 -16 16v239q0 101 -85 101q-44 0 -68.5 -26t-24.5 -76v-238q0 -16 -17 -16h-119q-16 0 -16 16v450q0 17 16 17z" />
    <glyph glyph-name="o" unicode="o" 
d="M35 241q0 110 74.5 182.5t190.5 72.5t190.5 -72.5t74.5 -182.5t-74 -182q-75 -72 -191 -72t-190.5 72t-74.5 182zM190 241q0 -51 30 -83q30 -33 80 -33t80 32.5t30 83.5q0 52 -30 84t-80 32t-80 -32.5t-30 -83.5z" />
    <glyph glyph-name="p" unicode="p" horiz-adv-x="616" 
d="M58 -200v666q0 17 16 17h117q16 0 16 -17v-42h4q41 72 142 72q99 0 163.5 -72t64.5 -183q0 -110 -64 -182t-162 -72q-100 0 -142 72h-3v-259q0 -16 -17 -16h-119q-16 0 -16 16zM235 158q30 -33 80 -33q51 0 81 32.5t30 83.5q0 52 -30 84t-81 32q-50 0 -80 -32t-30 -84
q0 -51 30 -83z" />
    <glyph glyph-name="q" unicode="q" horiz-adv-x="617" 
d="M100 424q64 72 163 72q101 0 142 -72h4v42q0 17 17 17h116q17 0 17 -17v-666q0 -16 -17 -16h-119q-16 0 -16 16v259h-4q-41 -72 -142 -72q-98 0 -162 72t-64 182q0 111 65 183zM221 158q30 -33 80 -33t80.5 32.5t30.5 83.5q0 52 -30.5 84t-80.5 32t-80.5 -32t-30.5 -84
q0 -51 31 -83z" />
    <glyph glyph-name="r" unicode="r" horiz-adv-x="407" 
d="M58 16v450q0 17 16 17h115q17 0 17 -17v-65h2q19 44 57 67.5t85 23.5q9 0 27 -2q13 -3 13 -19v-113q0 -15 -14 -15h-3q-11 2 -33 2q-130 0 -130 -153v-176q0 -16 -17 -16h-119q-16 0 -16 16z" />
    <glyph glyph-name="s" unicode="s" horiz-adv-x="512" 
d="M36 143q4 5 12 5h117q12 0 18 -14q14 -37 74 -37q73 0 73 45q0 20 -16 30t-57 15l-66 7q-78 9 -118 47t-40 97q0 72 57 115t165 43q197 0 219 -148v-5q0 -12 -15 -12h-115q-14 0 -18 15q-12 39 -72 39q-71 0 -71 -43q0 -16 16.5 -25.5t58.5 -14.5l66 -8q156 -17 156 -145
q0 -76 -58.5 -119t-163.5 -43q-100 0 -157 38t-68 106q-1 2 -1 4q0 4 4 8z" />
    <glyph glyph-name="t" unicode="t" horiz-adv-x="449" 
d="M29 483h78v116q0 17 17 17h119q16 0 16 -17v-116h142q16 0 16 -17v-98q0 -17 -16 -17h-142v-144q0 -45 19 -63.5t64 -18.5q34 0 60 11q5 2 9 2q10 0 10 -14v-101q0 -13 -11 -18q-42 -18 -102 -18q-101 0 -151 48.5t-50 150.5v165h-78q-17 0 -17 17v98q0 17 17 17z" />
    <glyph glyph-name="u" unicode="u" horiz-adv-x="590" 
d="M69 483h119q17 0 17 -17v-239q0 -101 82 -101q44 0 68.5 26.5t24.5 75.5v238q0 17 17 17h119q16 0 16 -17v-450q0 -16 -16 -16h-116q-16 0 -16 16v48h-3q-40 -77 -148 -77q-85 0 -132.5 53t-47.5 149v277q0 17 16 17z" />
    <glyph glyph-name="v" unicode="v" horiz-adv-x="562" 
d="M26 483h131q15 0 19 -13l103 -293h3l104 293q6 13 19 13h131q15 0 15 -10q0 -4 -2 -9l-185 -451q-4 -13 -19 -13h-128q-14 0 -20 13l-184 451q-2 5 -2 9q0 10 15 10z" />
    <glyph glyph-name="w" unicode="w" horiz-adv-x="867" 
d="M31 483h126q14 0 19 -14l87 -290h4l93 290q3 14 18 14h110q16 0 19 -14l94 -290h2l88 290q5 14 19 14h126q15 0 15 -10q0 -4 -2 -9l-155 -451q-4 -13 -19 -13h-132q-14 0 -18 13l-90 269h-3l-89 -269q-6 -13 -19 -13h-133q-14 0 -18 13l-156 451q-1 4 -1 7q0 12 15 12z
" />
    <glyph glyph-name="x" unicode="x" horiz-adv-x="557" 
d="M24 20l163 227l-158 216q-3 5 -3 10q0 2 1.5 6t11.5 4h133q13 0 19 -11l86 -121h3l86 121q6 11 19 11h133q10 0 12 -4t2 -6q0 -5 -4 -10l-157 -216l162 -227q5 -7 5 -12q0 -8 -15 -8h-134q-13 0 -20 11l-89 127h-3l-89 -127q-7 -11 -20 -11h-134q-15 0 -15 8q0 5 5 12z
" />
    <glyph glyph-name="y" unicode="y" horiz-adv-x="595" 
d="M68 -42h113q13 0 18 -15q17 -47 90 -47q103 0 103 108v75h-4q-40 -73 -149 -73q-86 0 -134 52t-48 147v261q0 17 17 17h119q16 0 16 -17v-224q0 -101 84 -101q43 0 68 26.5t25 75.5v223q0 17 16 17h119q17 0 17 -17v-462q0 -109 -66.5 -171t-182.5 -62
q-104 0 -165.5 45.5t-71.5 124.5v4q0 13 16 13z" />
    <glyph glyph-name="z" unicode="z" horiz-adv-x="499" 
d="M43 114l215 237h-200q-16 0 -16 16v99q0 17 16 17h388q16 0 16 -17v-76q0 -13 -7 -21l-215 -237h207q16 0 16 -17v-99q0 -16 -16 -16h-395q-17 0 -17 16v77q0 10 8 21z" />
    <glyph glyph-name="braceleft" unicode="{" horiz-adv-x="416" 
d="M46 276v102q0 15 17 17q31 2 43.5 16t12.5 44v166q0 78 36 112.5t120 34.5h81q17 0 17 -16v-99q0 -16 -17 -16h-33q-31 0 -44.5 -13t-13.5 -44v-126q0 -108 -93 -125v-4q93 -17 93 -125v-126q0 -31 13.5 -44t44.5 -13h33q17 0 17 -16v-99q0 -16 -17 -16h-81
q-84 0 -120 34.5t-36 112.5v166q0 31 -13.5 44.5t-42.5 15.5q-17 2 -17 17z" />
    <glyph glyph-name="bar" unicode="|" horiz-adv-x="298" 
d="M88 774h122q16 0 16 -16v-828q0 -16 -16 -16h-122q-16 0 -16 16v828q0 16 16 16z" />
    <glyph glyph-name="braceright" unicode="}" horiz-adv-x="416" 
d="M60 768h81q84 0 120 -34.5t36 -112.5v-166q0 -30 12.5 -44t43.5 -16q17 -2 17 -17v-102q0 -15 -17 -17q-29 -2 -42.5 -15.5t-13.5 -44.5v-166q0 -78 -36 -112.5t-120 -34.5h-81q-17 0 -17 16v99q0 16 17 16h33q31 0 44.5 13t13.5 44v126q0 108 93 125v4q-93 17 -93 125
v126q0 31 -13.5 44t-44.5 13h-33q-17 0 -17 16v99q0 16 17 16z" />
    <glyph glyph-name="asciitilde" unicode="~" 
d="M83 371q53 36 114 36q35 0 104.5 -24t102.5 -24q55 0 104 30q7 4 11 4q8 0 8 -14v-96q0 -13 -10 -20q-53 -35 -112 -35q-37 0 -105 23.5t-105 23.5q-50 0 -103 -31q-5 -3 -9 -3q-2 0 -6 2t-4 12v97q0 12 10 19z" />
    <glyph glyph-name="uni00A0" unicode="&#xa0;" horiz-adv-x="234" 
 />
    <glyph glyph-name="exclamdown" unicode="&#xa1;" horiz-adv-x="314" 
d="M87 227q0 17 17 17h106q17 0 17 -17l13 -425q0 -17 -16 -17h-134q-16 0 -16 17zM88 470q26 26 69 26t69.5 -26.5t26.5 -68.5t-26.5 -68.5t-69.5 -26.5t-69.5 26.5t-26.5 68.5t27 69z" />
    <glyph glyph-name="cent" unicode="&#xa2;" horiz-adv-x="598" 
d="M44 350q0 92 52.5 159.5t141.5 87.5v100q0 17 16 17h96q17 0 17 -17v-99q76 -15 125.5 -65.5t59.5 -123.5v-5q0 -13 -15 -13h-123q-13 0 -18 14q-18 61 -91 61q-48 0 -76.5 -31.5t-28.5 -84.5t28.5 -84.5t76.5 -31.5q73 0 91 60q5 15 18 15h123q16 0 16 -14v-3
q-11 -74 -60.5 -124t-125.5 -66v-99q0 -17 -17 -17h-96q-16 0 -16 17v100q-89 20 -141.5 87.5t-52.5 159.5z" />
    <glyph glyph-name="sterling" unicode="&#xa3;" horiz-adv-x="597" 
d="M50 291v84q0 16 16 16h45v104q0 102 57 160t163 58q212 0 221 -208q0 -17 -16 -17h-118q-15 0 -17 17q-4 37 -19.5 52.5t-46.5 15.5q-69 0 -69 -90v-92h193q16 0 16 -16v-84q0 -16 -16 -16h-193v-137h267q16 0 16 -16v-106q0 -16 -16 -16h-467q-16 0 -16 16v106
q0 16 16 16h45v137h-45q-16 0 -16 16z" />
    <glyph glyph-name="currency" unicode="&#xa4;" horiz-adv-x="621" 
d="M69 162l70 70q-35 50 -35 117t36 119l-71 70q-6 6 -6 12t6 12l29 29q6 6 12 6t12 -6l71 -72q55 36 127 36q64 0 115 -28l64 64q6 6 11 7q6 -1 12 -7l30 -29q5 -6 5 -12t-5 -12l-60 -59q45 -54 45 -130q0 -73 -43 -129l58 -58q5 -6 5 -12t-5 -12l-30 -29q-6 -6 -12 -6
q-5 0 -11 6l-63 63q-50 -29 -116 -29q-74 0 -127 36l-71 -70q-6 -6 -12 -6t-12 6l-29 29q-6 6 -6 12t6 12zM244 349q0 -36 21 -58q20 -23 55 -23t55.5 22.5t20.5 58.5t-20.5 59t-55.5 23t-55.5 -23t-20.5 -59z" />
    <glyph glyph-name="yen" unicode="&#xa5;" horiz-adv-x="635" 
d="M27 694q3 6 12 6h134q13 0 19 -12l124 -241h2l125 241q6 12 19 12h133q10 0 12 -4t2 -7q0 -4 -3 -9l-175 -314h115q16 0 16 -17v-55q0 -16 -16 -16h-153v-71h153q16 0 16 -17v-55q0 -16 -16 -16h-153v-103q0 -16 -16 -16h-119q-16 0 -16 16v103h-153q-16 0 -16 16v55
q0 17 16 17h153v71h-153q-16 0 -16 16v55q0 17 16 17h115l-176 314q-2 5 -2 8t1 6z" />
    <glyph glyph-name="brokenbar" unicode="&#xa6;" horiz-adv-x="298" 
d="M88 268h122q16 0 16 -17v-321q0 -16 -16 -16h-122q-16 0 -16 16v321q0 17 16 17zM72 758q0 16 16 16h122q16 0 16 -16v-321q0 -17 -16 -17h-122q-16 0 -16 17v321z" />
    <glyph glyph-name="section" unicode="&#xa7;" horiz-adv-x="560" 
d="M126 431q-73 42 -73 126q0 80 60 128.5t169 48.5q206 0 228 -176v-2q0 -6 -4 -10.5t-12 -4.5h-110q-15 0 -18 15q-12 52 -88 52q-74 0 -74 -49q0 -36 61 -49l87 -21q83 -20 121.5 -58.5t38.5 -101.5q0 -95 -76 -135q73 -42 73 -127q0 -82 -60 -129.5t-169 -47.5
q-103 0 -162.5 45t-68.5 133v3q0 15 16 15h110q14 0 17 -16q14 -56 92 -56q74 0 74 49q0 38 -63 53l-85 21q-162 37 -162 161q0 93 78 133zM192 314q0 -26 15.5 -41t51.5 -25l16 -3q15 -4 28 -4q22 0 43 16.5t21 54.5q0 25 -15 40.5t-51 24.5l-16 4q-15 4 -27 4
q-23 0 -44.5 -16.5t-21.5 -54.5z" />
    <glyph glyph-name="dieresis" unicode="&#xa8;" 
d="M127 695q23 24 59 24q37 0 60.5 -24.5t23.5 -61.5t-23.5 -61.5t-60.5 -24.5q-36 0 -59.5 24.5t-23.5 61.5t24 62zM354 695q23 24 60 24q36 0 59.5 -24.5t23.5 -61.5t-23.5 -61.5t-59.5 -24.5q-37 0 -60.5 24.5t-23.5 61.5t24 62z" />
    <glyph glyph-name="copyright" unicode="&#xa9;" horiz-adv-x="859" 
d="M170 607q106 106 259 106q154 0 260 -106t106 -257t-106 -257t-260 -106q-153 0 -259 106t-106 257t106 257zM229 148q80 -84 200 -84q121 0 201.5 83.5t80.5 202.5t-80.5 202.5t-201.5 83.5q-120 0 -200.5 -83.5t-80.5 -202.5t81 -202zM232 350q0 84 56.5 140t144.5 56
q75 0 127 -40.5t64 -105.5v-5q0 -13 -15 -13h-100q-13 0 -17 15q-16 31 -59 31q-32 0 -51 -21.5t-19 -56.5q0 -36 19 -57t51 -21q43 0 59 31q4 15 17 15h100q16 0 16 -13v-3q-11 -66 -63 -107t-129 -41q-88 0 -144.5 56t-56.5 140z" />
    <glyph glyph-name="ordfeminine" unicode="&#xaa;" horiz-adv-x="495" 
d="M80 655q51 58 131 58q76 0 108 -52h3v25q0 16 17 16h98q17 0 17 -16v-357q0 -16 -17 -16h-98q-17 0 -17 16v24h-3q-33 -52 -108 -52q-80 0 -131.5 58t-51.5 148t52 148zM169 507q0 -36 20 -58.5t55 -22.5t56 22.5t21 58.5q0 37 -21 59.5t-56 22.5q-34 0 -54 -23
q-21 -23 -21 -59z" />
    <glyph glyph-name="guillemotleft" unicode="&#xab;" horiz-adv-x="608" 
d="M295 250l105 162q7 11 20 11h128q10 0 12 -4t2 -6q0 -4 -3 -9l-107 -165l107 -164q3 -5 3 -9q0 -3 -2 -7t-12 -4h-128q-13 0 -20 11l-105 162q-3 6 -3 12q0 5 3 10zM39 250l105 162q6 11 19 11h129q10 0 11.5 -3.5t1.5 -5.5q0 -5 -3 -10l-106 -165l106 -164q3 -5 3 -10
q0 -2 -1.5 -6t-11.5 -4h-129q-13 0 -19 11l-105 162q-3 6 -3 12q0 5 3 10z" />
    <glyph glyph-name="logicalnot" unicode="&#xac;" 
d="M73 369q0 17 16 17h422q16 0 16 -17v-201q0 -16 -16 -16h-107q-17 0 -17 16v85h-298q-16 0 -16 16v100z" />
    <glyph glyph-name="registered" unicode="&#xae;" horiz-adv-x="536" 
d="M109 648q65 65 159 65t159.5 -65.5t65.5 -158.5t-65.5 -158.5t-159.5 -65.5t-159.5 65.5t-65.5 158.5t66 159zM104 489q0 -70 47 -119q47 -50 117 -50t117 49.5t47 119.5q0 71 -47 119.5t-117 48.5t-117 -48.5t-47 -119.5zM177 592q0 16 16 16h86q90 0 90 -81
q0 -60 -49 -75l40 -56q4 -5 4 -10q0 -2 -2 -6t-12 -4h-31q-12 0 -20 11l-39 60h-23v-54q0 -17 -17 -17h-27q-16 0 -16 17v199zM276 497q31 0 31 29q0 28 -31 28h-39v-57h39z" />
    <glyph glyph-name="macron" unicode="&#xaf;" 
d="M158 677h284q17 0 17 -16v-82q0 -16 -17 -16h-284q-17 0 -17 16v82q0 16 17 16z" />
    <glyph glyph-name="degree" unicode="&#xb0;" horiz-adv-x="403" 
d="M32 550q0 71 47.5 117.5t122.5 46.5q74 0 121.5 -46.5t47.5 -117.5t-47 -118q-48 -47 -122 -47t-122 47t-48 118zM139 550q0 -28 18 -46q17 -18 45 -18t45 18t17 46t-17 45.5t-45 17.5t-45.5 -17.5t-17.5 -45.5z" />
    <glyph glyph-name="plusminus" unicode="&#xb1;" 
d="M89 469h140v129q0 17 17 17h108q17 0 17 -17v-129h140q16 0 16 -16v-100q0 -17 -16 -17h-140v-129q0 -16 -17 -16h-108q-17 0 -17 16v129h-140q-16 0 -16 17v100q0 16 16 16zM73 117q0 16 16 16h422q16 0 16 -16v-101q0 -16 -16 -16h-422q-16 0 -16 16v101z" />
    <glyph glyph-name="twosuperior" unicode="&#xb2;" horiz-adv-x="327" 
d="M43 468q20 36 76 62l47 23q37 15 37 38q0 28 -33 28q-29 0 -37 -26q-5 -14 -17 -14h-75q-15 0 -15 13v3q5 55 42.5 86.5t100.5 31.5q64 0 101 -32t37 -87q0 -77 -88 -116l-47 -22q-30 -14 -39 -31h152q16 0 16 -16v-61q0 -16 -16 -16h-245q-17 0 -17 16v16q0 68 20 104z
" />
    <glyph glyph-name="threesuperior" unicode="&#xb3;" horiz-adv-x="334" 
d="M39 454h74q10 0 18 -14q9 -22 39 -22q17 0 27 8.5t10 21.5q0 29 -40 29h-17q-16 0 -16 16v51q0 17 16 17h16q38 0 38 31q0 26 -34 26q-30 0 -37 -22q-5 -15 -17 -15h-74q-15 0 -15 13v3q6 53 45 86q36 30 97 30q64 0 101 -29.5t37 -78.5q0 -61 -55 -85q61 -21 61 -85
q0 -49 -38.5 -80.5t-106.5 -31.5q-65 0 -104 34q-34 30 -40 80v3q0 14 15 14z" />
    <glyph glyph-name="acute" unicode="&#xb4;" 
d="M231 570l83 134q8 11 20 11h135q10 0 12 -4t2 -6q0 -5 -4 -10l-107 -134q-6 -10 -19 -10h-111q-10 0 -12 4t-2 6q0 4 3 9z" />
    <glyph glyph-name="uni00B5" unicode="&#xb5;" horiz-adv-x="633" 
d="M72 466q0 17 16 17h120q16 0 16 -17v-248q0 -49 20.5 -72t63.5 -23q101 0 101 124v219q0 17 16 17h119q17 0 17 -17v-450q0 -16 -17 -16h-101q-16 0 -16 16v61q-16 -43 -48 -66.5t-75 -23.5q-48 0 -80 31v-218q0 -16 -16 -16h-120q-16 0 -16 16v666z" />
    <glyph glyph-name="paragraph" unicode="&#xb6;" horiz-adv-x="665" 
d="M44 574q0 73 51 116.5t145 43.5h113q17 0 17 -16v-832q0 -16 -17 -16h-105q-17 0 -17 16v528h-8q-82 0 -130.5 44t-48.5 116zM471 734h105q17 0 17 -16v-832q0 -16 -17 -16h-105q-17 0 -17 16v832q0 16 17 16z" />
    <glyph glyph-name="periodcentered" unicode="&#xb7;" horiz-adv-x="314" 
d="M62 296q0 42 26 68.5t69 26.5t69.5 -26.5t26.5 -68.5q0 -43 -26 -69q-27 -26 -70 -26t-69 26t-26 69z" />
    <glyph glyph-name="cedilla" unicode="&#xb8;" 
d="M186 -170l68 184q4 13 18 13h94q14 0 14 -11q0 -3 -1 -7l-52 -183q-3 -14 -17 -14h-112q-14 0 -14 9q0 4 2 9z" />
    <glyph glyph-name="onesuperior" unicode="&#xb9;" horiz-adv-x="243" 
d="M22 573v69q0 13 11 20l65 37q9 6 20 6h67q17 0 17 -17v-340q0 -16 -17 -16h-71q-17 0 -17 16v245l-56 -32q-5 -3 -9 -3q-2 0 -6 2.5t-4 12.5z" />
    <glyph glyph-name="ordmasculine" unicode="&#xba;" horiz-adv-x="490" 
d="M89 655q60 58 155 58q96 0 156.5 -58.5t60.5 -147.5q0 -90 -60.5 -148t-156.5 -58q-95 0 -155.5 58.5t-60.5 147.5t61 148zM169 507q0 -36 20 -58q20 -23 55 -23t56 22.5t21 58.5q0 37 -21 59.5t-56 22.5q-34 0 -54.5 -23t-20.5 -59z" />
    <glyph glyph-name="guillemotright" unicode="&#xbb;" horiz-adv-x="609" 
d="M47 418q3 5 13 5h128q14 0 20 -11l105 -162q3 -5 4 -10q-1 -6 -4 -12l-105 -162q-6 -11 -20 -11h-128q-10 0 -12 4t-2 7q0 4 3 9l107 164l-107 165q-3 5 -3 9q0 3 1 5zM306 75l107 164l-107 165q-3 5 -3 9q0 2 2 6t12 4h128q13 0 20 -11l104 -162q3 -5 4 -10
q-1 -6 -4 -12l-104 -162q-7 -11 -20 -11h-128q-10 0 -12 4t-2 7q0 4 3 9z" />
    <glyph glyph-name="onequarter" unicode="&#xbc;" horiz-adv-x="759" 
d="M106 20l400 669q7 11 20 11h94q10 0 12 -4t2 -6q0 -4 -3 -10l-401 -669q-7 -11 -20 -11h-93q-10 0 -12 4t-2 6q0 4 3 10zM408 135q0 12 7 20l150 208q6 10 19 10h84q16 0 16 -16v-205h20q16 0 16 -17v-56q0 -16 -16 -16h-20v-47q0 -16 -16 -16h-64q-16 0 -16 16v47h-163
q-17 0 -17 16v56zM34 638q0 13 11 19l65 37q8 6 21 6h67q16 0 16 -16v-341q0 -16 -16 -16h-72q-16 0 -16 16v245l-56 -32q-5 -3 -9 -3q-3 0 -7 2.5t-4 12.5v70zM515 152h73v102z" />
    <glyph glyph-name="onehalf" unicode="&#xbd;" horiz-adv-x="800" 
d="M106 20l400 669q7 11 20 11h94q10 0 12 -4t2 -6q0 -4 -3 -10l-401 -669q-7 -11 -20 -11h-93q-10 0 -12 4t-2 6q0 4 3 10zM477 33q0 69 20 104t76 62l47 22q37 17 37 39q0 27 -34 27q-29 0 -36 -25q-5 -15 -18 -15h-74q-15 0 -15 14v3q5 54 42.5 85.5t100.5 31.5
q64 0 101 -32t37 -87q0 -75 -89 -116l-47 -21q-31 -14 -38 -31h152q16 0 16 -17v-61q0 -16 -16 -16h-245q-17 0 -17 16v17zM34 638q0 13 11 19l65 37q8 6 21 6h67q16 0 16 -16v-341q0 -16 -16 -16h-72q-16 0 -16 16v245l-56 -32q-5 -3 -9 -3q-3 0 -7 2.5t-4 12.5v70z" />
    <glyph glyph-name="threequarters" unicode="&#xbe;" horiz-adv-x="817" 
d="M164 20l401 669q5 11 20 11h93q10 0 12 -4t2 -6q0 -4 -3 -10l-401 -669q-6 -11 -20 -11h-93q-10 0 -12 4t-2 6q0 4 3 10zM39 454h74q10 0 18 -14q9 -22 39 -22q17 0 27 8.5t10 21.5q0 29 -40 29h-17q-16 0 -16 16v51q0 17 16 17h16q38 0 38 31q0 26 -34 26q-30 0 -37 -22
q-5 -15 -17 -15h-74q-15 0 -15 13v3q6 53 45 86q36 30 97 30q64 0 101 -29.5t37 -78.5q0 -61 -55 -85q61 -21 61 -85q0 -49 -38.5 -80.5t-106.5 -31.5q-65 0 -104 34q-34 30 -40 80v3q0 14 15 14zM467 135q0 11 6 20l150 208q6 10 20 10h83q17 0 17 -16v-205h19q16 0 16 -17
v-56q0 -16 -16 -16h-19v-47q0 -16 -17 -16h-64q-16 0 -16 16v47h-163q-16 0 -16 16v56zM646 152v102l-73 -102h73z" />
    <glyph glyph-name="questiondown" unicode="&#xbf;" horiz-adv-x="503" 
d="M55 29q19 35 67 76l41 34q24 20 30 32t6 37v22q0 16 16 16h112q16 0 16 -16v-31q0 -49 -14.5 -75.5t-64.5 -69.5l-45 -37q-38 -33 -38 -62q0 -51 62 -51q74 0 84 74q1 16 17 16h109q16 0 16 -13v-3q-6 -99 -63.5 -152t-159.5 -53q-99 0 -154.5 47.5t-55.5 130.5
q0 42 19 78zM201 470q26 26 69 26t69.5 -26.5t26.5 -68.5t-26.5 -68.5t-69.5 -26.5t-69.5 26.5t-26.5 68.5t27 69z" />
    <glyph glyph-name="Agrave" unicode="&#xc0;" horiz-adv-x="742" 
d="M15 19l261 668q4 13 19 13h150q16 0 20 -13l262 -668q1 -5 1 -8q0 -11 -14 -11h-136q-14 0 -18 13l-40 109h-299l-40 -109q-4 -13 -19 -13h-134q-15 0 -15 10q0 4 2 9zM207 926q3 6 13 6h135q12 0 20 -11l83 -134q4 -7 4 -11q0 -8 -15 -8h-110q-14 0 -20 10l-106 134
q-5 6 -5 10q0 2 1 4zM467 265l-95 258h-3l-95 -258h193z" />
    <glyph glyph-name="Aacute" unicode="&#xc1;" horiz-adv-x="742" 
d="M15 19l261 668q4 13 19 13h150q16 0 20 -13l262 -668q1 -5 1 -8q0 -11 -14 -11h-136q-14 0 -18 13l-40 109h-299l-40 -109q-4 -13 -19 -13h-134q-15 0 -15 10q0 4 2 9zM276 787l83 134q8 11 20 11h135q10 0 12 -4t2 -6q0 -5 -4 -10l-107 -134q-6 -10 -19 -10h-111
q-10 0 -12 4t-2 6q0 4 3 9zM467 265l-95 258h-3l-95 -258h193z" />
    <glyph glyph-name="Acircumflex" unicode="&#xc2;" horiz-adv-x="742" 
d="M15 19l261 668q4 13 19 13h150q16 0 20 -13l262 -668q1 -5 1 -8q0 -11 -14 -11h-136q-14 0 -18 13l-40 109h-299l-40 -109q-4 -13 -19 -13h-134q-15 0 -15 10q0 4 2 9zM180 787l110 135q9 10 20 10h121q11 0 20 -10l110 -135q5 -6 5 -10q0 -2 -2 -6t-13 -4h-107
q-13 0 -20 10l-52 67h-3l-53 -67q-7 -10 -20 -10h-107q-10 0 -12 4t-2 6q0 4 5 10zM467 265l-95 258h-3l-95 -258h193z" />
    <glyph glyph-name="Atilde" unicode="&#xc3;" horiz-adv-x="742" 
d="M15 19l261 668q4 13 19 13h150q16 0 20 -13l262 -668q1 -5 1 -8q0 -11 -14 -11h-136q-14 0 -18 13l-40 109h-299l-40 -109q-4 -13 -19 -13h-134q-15 0 -15 10q0 4 2 9zM185 784q6 144 105 144q35 0 88 -32q32 -19 47 -19q22 0 26 33q1 16 17 16h72q16 0 16 -21v-5
q-8 -135 -104 -135q-37 0 -88 31q-34 20 -47 20q-22 0 -26 -33q-2 -16 -17 -16h-72q-17 0 -17 17zM467 265l-95 258h-3l-95 -258h193z" />
    <glyph glyph-name="Adieresis" unicode="&#xc4;" horiz-adv-x="742" 
d="M15 19l261 668q4 13 19 13h150q16 0 20 -13l262 -668q1 -5 1 -8q0 -11 -14 -11h-136q-14 0 -18 13l-40 109h-299l-40 -109q-4 -13 -19 -13h-134q-15 0 -15 10q0 4 2 9zM467 265l-95 258h-3l-95 -258h193zM198 912q23 24 59 24q37 0 60.5 -24.5t23.5 -61.5t-23.5 -61.5
t-60.5 -24.5q-36 0 -59.5 24.5t-23.5 61.5t24 62zM401 850q0 37 23.5 61.5t60.5 24.5q36 0 59.5 -24.5t23.5 -61.5t-23.5 -61.5t-59.5 -24.5q-37 0 -60.5 24.5t-23.5 61.5z" />
    <glyph glyph-name="Aring" unicode="&#xc5;" horiz-adv-x="742" 
d="M15 19l261 668q4 13 19 13h150q16 0 20 -13l262 -668q1 -5 1 -8q0 -11 -14 -11h-136q-14 0 -18 13l-40 109h-299l-40 -109q-4 -13 -19 -13h-134q-15 0 -15 10q0 4 2 9zM271 980q40 38 100 38t100.5 -38t40.5 -93t-40 -93q-41 -38 -101 -38t-100.5 38t-40.5 93t41 93z
M274 265h193l-95 258h-3zM321 887q0 -22 13.5 -36t36.5 -14t36.5 14t13.5 36t-13 36q-14 14 -37 14t-36.5 -14t-13.5 -36z" />
    <glyph glyph-name="AE" unicode="&#xc6;" horiz-adv-x="1077" 
d="M10 20l425 669q5 11 19 11h558q17 0 17 -16v-116q0 -17 -17 -17h-319v-128h249q17 0 17 -17v-112q0 -17 -17 -17h-249v-128h323q17 0 17 -17v-116q0 -16 -17 -16h-469q-16 0 -16 16v108h-272l-71 -113q-6 -11 -19 -11h-148q-10 0 -12 4t-2 7q0 4 3 9zM350 269h181v283h-4
z" />
    <glyph glyph-name="Ccedilla" unicode="&#xc7;" horiz-adv-x="802" 
d="M148 608q104 105 262 105q131 0 226.5 -74t118.5 -203v-5q0 -13 -14 -13h-135q-15 0 -18 14q-17 63 -63.5 96t-113.5 33q-91 0 -146 -58t-55 -153t55 -153t146 -58q67 0 113.5 33t63.5 96q3 14 18 14h135q14 0 14 -14v-5q-20 -112 -96.5 -183.5t-186.5 -87.5l-47 -166
q-3 -14 -17 -14h-112q-14 0 -14 9q0 4 2 9l60 162q-133 22 -216.5 122.5t-83.5 235.5q0 153 104 258z" />
    <glyph glyph-name="Egrave" unicode="&#xc8;" horiz-adv-x="617" 
d="M72 16v668q0 16 16 16h465q16 0 16 -16v-116q0 -17 -16 -17h-319v-128h249q16 0 16 -17v-112q0 -17 -16 -17h-249v-128h323q16 0 16 -17v-116q0 -16 -16 -16h-469q-16 0 -16 16zM153 926q3 6 13 6h135q12 0 20 -11l83 -134q4 -7 4 -11q0 -8 -15 -8h-110q-14 0 -20 10
l-106 134q-5 6 -5 10q0 2 1 4z" />
    <glyph glyph-name="Eacute" unicode="&#xc9;" horiz-adv-x="617" 
d="M88 700h465q16 0 16 -16v-116q0 -17 -16 -17h-319v-128h249q16 0 16 -17v-112q0 -17 -16 -17h-249v-128h323q16 0 16 -17v-116q0 -16 -16 -16h-469q-16 0 -16 16v668q0 16 16 16zM223 787l83 134q8 11 20 11h135q10 0 12 -4t2 -6q0 -5 -4 -10l-107 -134q-6 -10 -19 -10
h-111q-10 0 -12 4t-2 6q0 4 3 9z" />
    <glyph glyph-name="Ecircumflex" unicode="&#xca;" horiz-adv-x="617" 
d="M88 700h465q16 0 16 -16v-116q0 -17 -16 -17h-319v-128h249q16 0 16 -17v-112q0 -17 -16 -17h-249v-128h323q16 0 16 -17v-116q0 -16 -16 -16h-469q-16 0 -16 16v668q0 16 16 16zM127 787l110 135q9 10 20 10h121q11 0 20 -10l110 -135q5 -6 5 -10q0 -2 -2 -6t-13 -4
h-107q-13 0 -20 10l-52 67h-3l-53 -67q-7 -10 -20 -10h-107q-10 0 -12 4t-2 6q0 4 5 10z" />
    <glyph glyph-name="Edieresis" unicode="&#xcb;" horiz-adv-x="617" 
d="M72 684q0 16 16 16h465q16 0 16 -16v-116q0 -17 -16 -17h-319v-128h249q16 0 16 -17v-112q0 -17 -16 -17h-249v-128h323q16 0 16 -17v-116q0 -16 -16 -16h-469q-16 0 -16 16v668zM371 912q23 24 60 24q36 0 59.5 -24.5t23.5 -61.5t-23.5 -61.5t-59.5 -24.5
q-37 0 -60.5 24.5t-23.5 61.5t24 62zM144 912q23 24 59 24q37 0 60.5 -24.5t23.5 -61.5t-23.5 -61.5t-60.5 -24.5q-36 0 -59.5 24.5t-23.5 61.5t24 62z" />
    <glyph glyph-name="Igrave" unicode="&#xcc;" horiz-adv-x="306" 
d="M88 700h129q17 0 17 -16v-668q0 -16 -17 -16h-129q-16 0 -16 16v668q0 16 16 16zM-11 926q3 6 13 6h135q12 0 20 -11l83 -134q4 -7 4 -11q0 -8 -15 -8h-110q-14 0 -20 10l-106 134q-5 6 -5 10q0 2 1 4z" />
    <glyph glyph-name="Iacute" unicode="&#xcd;" horiz-adv-x="306" 
d="M72 684q0 16 16 16h129q17 0 17 -16v-668q0 -16 -17 -16h-129q-16 0 -16 16v668zM58 787l83 134q8 11 20 11h135q10 0 12 -4t2 -6q0 -5 -4 -10l-107 -134q-6 -10 -19 -10h-111q-10 0 -12 4t-2 6q0 4 3 9z" />
    <glyph glyph-name="Icircumflex" unicode="&#xce;" horiz-adv-x="306" 
d="M72 16v668q0 16 16 16h129q17 0 17 -16v-668q0 -16 -17 -16h-129q-16 0 -16 16zM-38 787l110 135q9 10 20 10h121q11 0 20 -10l110 -135q5 -6 5 -10q0 -2 -2 -6t-13 -4h-107q-13 0 -20 10l-52 67h-3l-53 -67q-7 -10 -20 -10h-107q-10 0 -12 4t-2 6q0 4 5 10z" />
    <glyph glyph-name="Idieresis" unicode="&#xcf;" horiz-adv-x="306" 
d="M88 700h129q17 0 17 -16v-668q0 -16 -17 -16h-129q-16 0 -16 16v668q0 16 16 16zM207 912q23 24 60 24q36 0 59.5 -24.5t23.5 -61.5t-23.5 -61.5t-59.5 -24.5q-37 0 -60.5 24.5t-23.5 61.5t24 62zM-21 912q24 24 60 24q37 0 60.5 -24.5t23.5 -61.5t-23.5 -61.5
t-60.5 -24.5q-36 0 -59.5 24.5t-23.5 61.5t23 62z" />
    <glyph glyph-name="Eth" unicode="&#xd0;" horiz-adv-x="743" 
d="M23 410h68v274q0 16 16 16h236q157 0 256 -97.5t99 -252.5t-99 -252.5t-256 -97.5h-236q-16 0 -16 16v273h-68q-17 0 -17 16v89q0 16 17 16zM252 150h87q90 0 141.5 53.5t51.5 146.5t-51.5 146.5t-141.5 53.5h-87v-140h121q16 0 16 -16v-89q0 -16 -16 -16h-121v-139z" />
    <glyph glyph-name="Ntilde" unicode="&#xd1;" horiz-adv-x="768" 
d="M72 16v668q0 16 16 16h125q14 0 21 -10l298 -420h2v414q0 16 16 16h129q17 0 17 -16v-668q0 -16 -17 -16h-126q-13 0 -20 10l-298 419h-1v-413q0 -16 -17 -16h-129q-16 0 -16 16zM303 928q35 0 88 -32q32 -19 47 -19q22 0 26 33q1 16 17 16h72q16 0 16 -21v-5
q-7 -135 -104 -135q-37 0 -88 31q-34 20 -47 20q-22 0 -26 -33q-2 -16 -17 -16h-72q-17 0 -17 17q6 144 105 144z" />
    <glyph glyph-name="Ograve" unicode="&#xd2;" horiz-adv-x="818" 
d="M149 609q105 104 260 104t260 -104.5t105 -258.5t-105 -258q-105 -105 -260 -105t-260 104.5t-105 258.5t105 259zM210 350q0 -92 55 -151q55 -60 144 -60t144 59.5t55 151.5t-55 151.5t-144 59.5t-144 -59.5t-55 -151.5zM245 926q3 6 13 6h135q12 0 20 -11l83 -134
q4 -7 4 -11q0 -8 -15 -8h-110q-14 0 -20 10l-106 134q-5 6 -5 10q0 2 1 4z" />
    <glyph glyph-name="Oacute" unicode="&#xd3;" horiz-adv-x="818" 
d="M44 350q0 154 105 258.5t260 104.5t260 -104.5t105 -258.5t-105 -258q-105 -105 -260 -105t-260 104.5t-105 258.5zM210 350q0 -92 55 -151q55 -60 144 -60t144 59.5t55 151.5t-55 151.5t-144 59.5t-144 -59.5t-55 -151.5zM314 787l83 134q8 11 20 11h135q10 0 12 -4
t2 -6q0 -5 -4 -10l-107 -134q-6 -10 -19 -10h-111q-10 0 -12 4t-2 6q0 4 3 9z" />
    <glyph glyph-name="Ocircumflex" unicode="&#xd4;" horiz-adv-x="818" 
d="M149 609q105 104 260 104t260 -104.5t105 -258.5t-105 -258q-105 -105 -260 -105t-260 104.5t-105 258.5t105 259zM210 350q0 -92 55 -151q55 -60 144 -60t144 59.5t55 151.5t-55 151.5t-144 59.5t-144 -59.5t-55 -151.5zM218 787l110 135q9 10 20 10h121q11 0 20 -10
l110 -135q5 -6 5 -10q0 -2 -2 -6t-13 -4h-107q-13 0 -20 10l-52 67h-3l-53 -67q-7 -10 -20 -10h-107q-10 0 -12 4t-2 6q0 4 5 10z" />
    <glyph glyph-name="Otilde" unicode="&#xd5;" horiz-adv-x="818" 
d="M44 350q0 154 105 258.5t260 104.5t260 -104.5t105 -258.5t-105 -258q-105 -105 -260 -105t-260 104.5t-105 258.5zM210 350q0 -92 55 -151q55 -60 144 -60t144 59.5t55 151.5t-55 151.5t-144 59.5t-144 -59.5t-55 -151.5zM223 784q6 144 105 144q35 0 88 -32
q32 -19 47 -19q22 0 26 33q1 16 17 16h72q16 0 16 -21v-5q-8 -135 -104 -135q-37 0 -88 31q-34 20 -47 20q-22 0 -26 -33q-2 -16 -17 -16h-72q-17 0 -17 17z" />
    <glyph glyph-name="Odieresis" unicode="&#xd6;" horiz-adv-x="818" 
d="M44 350q0 154 105 258.5t260 104.5t260 -104.5t105 -258.5t-105 -258q-105 -105 -260 -105t-260 104.5t-105 258.5zM265 199q55 -60 144 -60t144 59.5t55 151.5t-55 151.5t-144 59.5t-144 -59.5t-55 -151.5t55 -151zM439 850q0 37 23.5 61.5t60.5 24.5q36 0 59.5 -24.5
t23.5 -61.5t-23.5 -61.5t-59.5 -24.5q-37 0 -60.5 24.5t-23.5 61.5zM212 850q0 37 23.5 61.5t59.5 24.5q37 0 60.5 -24.5t23.5 -61.5t-23.5 -61.5t-60.5 -24.5q-36 0 -59.5 24.5t-23.5 61.5z" />
    <glyph glyph-name="multiply" unicode="&#xd7;" 
d="M153 104l-66 66q-12 12 0 24l123 123l-123 123q-12 12 0 24l66 66q12 12 24 0l123 -123l123 123q12 12 24 0l66 -66q12 -12 0 -24l-123 -123l123 -123q12 -12 0 -24l-66 -66q-12 -12 -24 0l-123 123l-123 -123q-12 -12 -24 0z" />
    <glyph glyph-name="Oslash" unicode="&#xd8;" horiz-adv-x="818" 
d="M44 350q0 154 105 258.5t260 104.5q70 0 136 -25l42 72q5 10 12 10q5 0 10 -4l63 -35q8 -6 8 -13q0 -5 -3 -10l-41 -70q65 -50 101.5 -125t36.5 -163q0 -154 -105 -258.5t-260 -104.5q-69 0 -136 24l-42 -72q-5 -9 -12 -9q-5 0 -10 3l-61 35q-8 6 -8 13q0 4 2 9l41 71
q-65 51 -102 126t-37 163zM264 191l212 366q-35 10 -67 10q-91 0 -147.5 -61t-56.5 -156q0 -97 59 -159zM409 133q91 0 147.5 61t56.5 156q0 98 -59 159l-211 -366q29 -10 66 -10z" />
    <glyph glyph-name="Ugrave" unicode="&#xd9;" horiz-adv-x="719" 
d="M82 700h129q17 0 17 -16v-389q0 -79 32.5 -116t98.5 -37t99 37t33 116v389q0 16 16 16h129q17 0 17 -16v-400q0 -142 -77 -219q-77 -78 -217 -78t-216.5 77.5t-76.5 219.5v400q0 16 16 16zM195 926q3 6 13 6h135q12 0 20 -11l83 -134q4 -7 4 -11q0 -8 -15 -8h-110
q-14 0 -20 10l-106 134q-5 6 -5 10q0 2 1 4z" />
    <glyph glyph-name="Uacute" unicode="&#xda;" horiz-adv-x="719" 
d="M66 284v400q0 16 16 16h129q17 0 17 -16v-389q0 -79 32.5 -116t98.5 -37t99 37t33 116v389q0 16 16 16h129q17 0 17 -16v-400q0 -142 -77 -219q-77 -78 -217 -78t-216.5 77.5t-76.5 219.5zM264 787l83 134q8 11 20 11h135q10 0 12 -4t2 -6q0 -5 -4 -10l-107 -134
q-6 -10 -19 -10h-111q-10 0 -12 4t-2 6q0 4 3 9z" />
    <glyph glyph-name="Ucircumflex" unicode="&#xdb;" horiz-adv-x="719" 
d="M66 284v400q0 16 16 16h129q17 0 17 -16v-389q0 -79 32.5 -116t98.5 -37t99 37t33 116v389q0 16 16 16h129q17 0 17 -16v-400q0 -142 -77 -219q-77 -78 -217 -78t-216.5 77.5t-76.5 219.5zM168 787l110 135q9 10 20 10h121q11 0 20 -10l110 -135q5 -6 5 -10q0 -2 -2 -6
t-13 -4h-107q-13 0 -20 10l-52 67h-3l-53 -67q-7 -10 -20 -10h-107q-10 0 -12 4t-2 6q0 4 5 10z" />
    <glyph glyph-name="Udieresis" unicode="&#xdc;" horiz-adv-x="719" 
d="M66 284v400q0 16 16 16h129q17 0 17 -16v-389q0 -79 32.5 -116t98.5 -37t99 37t33 116v389q0 16 16 16h129q17 0 17 -16v-400q0 -142 -77 -219q-77 -78 -217 -78t-216.5 77.5t-76.5 219.5zM162 850q0 37 23.5 61.5t59.5 24.5q37 0 60.5 -24.5t23.5 -61.5t-23.5 -61.5
t-60.5 -24.5q-36 0 -59.5 24.5t-23.5 61.5zM389 850q0 37 23.5 61.5t60.5 24.5q36 0 59.5 -24.5t23.5 -61.5t-23.5 -61.5t-59.5 -24.5q-37 0 -60.5 24.5t-23.5 61.5z" />
    <glyph glyph-name="Yacute" unicode="&#xdd;" horiz-adv-x="682" 
d="M12 695q3 5 13 5h147q13 0 20 -12l148 -264h2l149 264q5 12 19 12h147q10 0 12 -4t2 -6q0 -4 -3 -10l-245 -414v-250q0 -16 -16 -16h-132q-16 0 -16 16v250l-245 414q-3 6 -3 10q0 3 1 5zM247 787l83 134q8 11 20 11h135q10 0 12 -4t2 -6q0 -5 -4 -10l-107 -134
q-6 -10 -19 -10h-111q-10 0 -12 4t-2 6q0 4 3 9z" />
    <glyph glyph-name="Thorn" unicode="&#xde;" horiz-adv-x="662" 
d="M359 599q130 0 201.5 -64.5t71.5 -181.5t-71.5 -181.5t-201.5 -64.5h-125v-91q0 -16 -17 -16h-129q-16 0 -16 16v668q0 16 16 16h129q17 0 17 -16v-85h125zM355 257q110 0 110 96q0 97 -110 97h-121v-193h121z" />
    <glyph glyph-name="germandbls" unicode="&#xdf;" horiz-adv-x="634" 
d="M372 -9q-39 0 -77 8q-15 1 -15 17v103q0 17 19 14q25 -5 47 -5q52 0 79.5 21t27.5 57q0 76 -119 76h-32q-16 0 -16 17v100q0 16 14 16q54 0 83 23.5t29 63.5q0 75 -97 75q-105 0 -105 -104v-457q0 -16 -17 -16h-119q-16 0 -16 16v463q0 109 66 171.5t191 62.5
q118 0 184 -54.5t66 -143.5q0 -57 -29 -97.5t-85 -58.5v-4q76 -10 116.5 -54t40.5 -114q0 -88 -63 -142t-173 -54z" />
    <glyph glyph-name="agrave" unicode="&#xe0;" horiz-adv-x="614" 
d="M99 424q64 72 164 72q101 0 142 -72h3v42q0 17 16 17h116q16 0 16 -17v-450q0 -16 -16 -16h-116q-16 0 -16 16v43h-2q-42 -72 -143 -72q-100 0 -164 72t-64 182q0 111 64 183zM220 158q30 -33 80 -33t80.5 32.5t30.5 83.5q0 52 -30.5 84t-80.5 32t-80 -32
q-30 -33 -30 -84t30 -83zM149 709q3 6 13 6h135q12 0 20 -11l83 -134q4 -7 4 -11q0 -8 -15 -8h-110q-14 0 -20 10l-106 134q-5 6 -5 10q0 2 1 4z" />
    <glyph glyph-name="aacute" unicode="&#xe1;" horiz-adv-x="614" 
d="M35 241q0 111 64 183t164 72q101 0 142 -72h3v42q0 17 16 17h116q16 0 16 -17v-450q0 -16 -16 -16h-116q-16 0 -16 16v43h-2q-42 -72 -143 -72q-100 0 -164 72t-64 182zM190 241q0 -51 30 -83.5t80 -32.5t80.5 32.5t30.5 83.5q0 52 -30.5 84t-80.5 32t-80 -32
q-30 -33 -30 -84zM219 570l83 134q8 11 20 11h135q10 0 12 -4t2 -6q0 -5 -4 -10l-107 -134q-6 -10 -19 -10h-111q-10 0 -12 4t-2 6q0 4 3 9z" />
    <glyph glyph-name="acircumflex" unicode="&#xe2;" horiz-adv-x="614" 
d="M35 241q0 111 64 183t164 72q101 0 142 -72h3v42q0 17 16 17h116q16 0 16 -17v-450q0 -16 -16 -16h-116q-16 0 -16 16v43h-2q-42 -72 -143 -72q-100 0 -164 72t-64 182zM190 241q0 -51 30 -83.5t80 -32.5t80.5 32.5t30.5 83.5q0 52 -30.5 84t-80.5 32t-80 -32
q-30 -33 -30 -84zM123 570l110 135q9 10 20 10h121q11 0 20 -10l110 -135q5 -6 5 -10q0 -2 -2 -6t-13 -4h-107q-13 0 -20 10l-52 67h-3l-53 -67q-7 -10 -20 -10h-107q-10 0 -12 4t-2 6q0 4 5 10z" />
    <glyph glyph-name="atilde" unicode="&#xe3;" horiz-adv-x="614" 
d="M35 241q0 111 64 183t164 72q101 0 142 -72h3v42q0 17 16 17h116q16 0 16 -17v-450q0 -16 -16 -16h-116q-16 0 -16 16v43h-2q-42 -72 -143 -72q-100 0 -164 72t-64 182zM127 567q6 144 105 144q35 0 88 -32q32 -19 47 -19q22 0 26 33q1 16 17 16h72q16 0 16 -21v-5
q-8 -135 -104 -135q-37 0 -88 31q-34 20 -47 20q-22 0 -26 -33q-2 -16 -17 -16h-72q-17 0 -17 17zM220 158q30 -33 80 -33t80.5 32.5t30.5 83.5q0 52 -30.5 84t-80.5 32t-80 -32q-30 -33 -30 -84t30 -83z" />
    <glyph glyph-name="adieresis" unicode="&#xe4;" horiz-adv-x="614" 
d="M35 241q0 111 64 183t164 72q101 0 142 -72h3v42q0 17 16 17h116q16 0 16 -17v-450q0 -16 -16 -16h-116q-16 0 -16 16v43h-2q-42 -72 -143 -72q-100 0 -164 72t-64 182zM220 158q30 -33 80 -33t80.5 32.5t30.5 83.5q0 52 -30.5 84t-80.5 32t-80 -32q-30 -33 -30 -84
t30 -83zM343 633q0 37 23.5 61.5t60.5 24.5q36 0 59.5 -24.5t23.5 -61.5t-23.5 -61.5t-59.5 -24.5q-37 0 -60.5 24.5t-23.5 61.5zM116 633q0 37 23.5 61.5t59.5 24.5q37 0 60.5 -24.5t23.5 -61.5t-23.5 -61.5t-60.5 -24.5q-36 0 -59.5 24.5t-23.5 61.5z" />
    <glyph glyph-name="aring" unicode="&#xe5;" horiz-adv-x="614" 
d="M35 241q0 111 64 183t164 72q101 0 142 -72h3v42q0 17 16 17h116q16 0 16 -17v-450q0 -16 -16 -16h-116q-16 0 -16 16v43h-2q-42 -72 -143 -72q-100 0 -164 72t-64 182zM213 763q40 38 100 38t100.5 -38t40.5 -93t-40 -93q-41 -38 -101 -38t-100.5 38t-40.5 93t41 93z
M220 158q30 -33 80 -33t80.5 32.5t30.5 83.5q0 52 -30.5 84t-80.5 32t-80 -32q-30 -33 -30 -84t30 -83zM263 670q0 -22 13.5 -36t36.5 -14t36.5 14t13.5 36t-13 36q-14 14 -37 14t-36.5 -14t-13.5 -36z" />
    <glyph glyph-name="ae" unicode="&#xe6;" horiz-adv-x="913" 
d="M246 287h116v5q0 44 -18.5 63.5t-62.5 19.5q-63 0 -76 -37q-5 -14 -18 -14h-119q-16 0 -16 14v3q10 74 65.5 114.5t156.5 40.5q123 0 171 -65h3q68 65 174 65q112 0 184 -71t72 -184v-14q0 -27 -26 -27h-339q16 -95 114 -95q70 0 92 40q8 13 19 13h111q15 0 15 -11
q0 -4 -1 -8q-21 -68 -83.5 -110t-153.5 -42q-122 0 -192 76h-3q-55 -76 -193 -76q-101 0 -154.5 41t-53.5 113q0 146 216 146zM726 291q-17 88 -102 88q-90 0 -109 -88h211zM255 105q49 0 78 20.5t29 52.5v20h-104q-79 0 -79 -46q0 -47 76 -47z" />
    <glyph glyph-name="ccedilla" unicode="&#xe7;" horiz-adv-x="580" 
d="M35 241q0 110 71.5 182.5t188.5 72.5q99 0 167 -54t81 -142v-5q0 -13 -15 -13h-123q-13 0 -18 15q-18 60 -91 60q-49 0 -77.5 -31.5t-28.5 -84.5t28.5 -84.5t77.5 -31.5q71 0 90 61q5 14 19 14h122q16 0 16 -12v-4q-10 -73 -58 -123t-122 -67l-48 -168q-3 -14 -17 -14
h-112q-14 0 -14 9q0 4 2 9l60 163q-92 19 -145.5 86.5t-53.5 161.5z" />
    <glyph glyph-name="egrave" unicode="&#xe8;" horiz-adv-x="586" 
d="M108 424q72 72 187 72q113 0 184.5 -70.5t71.5 -184.5v-16q0 -25 -24 -25h-341q16 -95 115 -95q70 0 92 40q7 13 18 13h112q8 0 12 -3.5t4 -6.5q0 -2 -1 -4q-20 -70 -83 -113.5t-156 -43.5q-119 0 -191.5 71t-72.5 182t73 184zM130 709q3 6 13 6h135q12 0 20 -11l83 -134
q4 -7 4 -11q0 -8 -15 -8h-110q-14 0 -20 10l-106 134q-5 6 -5 10q0 2 1 4zM188 293h210q-17 86 -101 86q-88 0 -109 -86z" />
    <glyph glyph-name="eacute" unicode="&#xe9;" horiz-adv-x="586" 
d="M35 240q0 111 72.5 183.5t187.5 72.5q113 0 184.5 -70.5t71.5 -184.5v-16q0 -25 -24 -25h-341q16 -95 115 -95q70 0 92 40q7 13 18 13h112q8 0 12 -3.5t4 -6.5q0 -2 -1 -4q-20 -70 -83 -113.5t-156 -43.5q-119 0 -191.5 71t-72.5 182zM199 570l83 134q8 11 20 11h135
q10 0 12 -4t2 -6q0 -5 -4 -10l-107 -134q-6 -10 -19 -10h-111q-10 0 -12 4t-2 6q0 4 3 9zM398 293q-17 86 -101 86q-88 0 -109 -86h210z" />
    <glyph glyph-name="ecircumflex" unicode="&#xea;" horiz-adv-x="586" 
d="M35 240q0 111 72.5 183.5t187.5 72.5q113 0 184.5 -70.5t71.5 -184.5v-16q0 -25 -24 -25h-341q16 -95 115 -95q70 0 92 40q7 13 18 13h112q8 0 12 -3.5t4 -6.5q0 -2 -1 -4q-20 -70 -83 -113.5t-156 -43.5q-119 0 -191.5 71t-72.5 182zM103 570l110 135q9 10 20 10h121
q11 0 20 -10l110 -135q5 -6 5 -10q0 -2 -2 -6t-13 -4h-107q-13 0 -20 10l-52 67h-3l-53 -67q-7 -10 -20 -10h-107q-10 0 -12 4t-2 6q0 4 5 10zM398 293q-17 86 -101 86q-88 0 -109 -86h210z" />
    <glyph glyph-name="edieresis" unicode="&#xeb;" horiz-adv-x="586" 
d="M35 240q0 111 72.5 183.5t187.5 72.5q113 0 184.5 -70.5t71.5 -184.5v-16q0 -25 -24 -25h-341q16 -95 115 -95q70 0 92 40q7 13 18 13h112q8 0 12 -3.5t4 -6.5q0 -2 -1 -4q-20 -70 -83 -113.5t-156 -43.5q-119 0 -191.5 71t-72.5 182zM348 695q23 24 60 24
q36 0 59.5 -24.5t23.5 -61.5t-23.5 -61.5t-59.5 -24.5q-37 0 -60.5 24.5t-23.5 61.5t24 62zM97 633q0 37 23.5 61.5t59.5 24.5q37 0 60.5 -24.5t23.5 -61.5t-23.5 -61.5t-60.5 -24.5q-36 0 -59.5 24.5t-23.5 61.5zM188 293h210q-17 86 -101 86q-88 0 -109 -86z" />
    <glyph glyph-name="igrave" unicode="&#xec;" horiz-adv-x="267" 
d="M74 483h119q17 0 17 -17v-450q0 -16 -17 -16h-119q-16 0 -16 16v450q0 17 16 17zM12 715h124q14 0 19 -12l62 -133q2 -4 2 -8q0 -3 -2.5 -7t-12.5 -4h-107q-14 0 -20 11l-77 133q-3 6 -3 11q0 9 15 9z" />
    <glyph glyph-name="iacute" unicode="&#xed;" horiz-adv-x="267" 
d="M74 483h119q17 0 17 -17v-450q0 -16 -17 -16h-119q-16 0 -16 16v450q0 17 16 17zM43 570l61 132q4 13 19 13h124q15 0 15 -9q0 -5 -3 -11l-77 -133q-6 -11 -20 -11h-107q-9 0 -11.5 4t-2.5 7q0 4 2 8z" />
    <glyph glyph-name="icircumflex" unicode="&#xee;" horiz-adv-x="267" 
d="M58 16v450q0 17 16 17h119q17 0 17 -17v-450q0 -16 -17 -16h-119q-16 0 -16 16zM-22 570l73 134q8 11 19 11h126q11 0 19 -11l74 -134q3 -6 3 -11q0 -9 -15 -9h-87q-14 0 -19 12l-36 72h-4l-35 -72q-6 -12 -20 -12h-87q-9 0 -11.5 4t-2.5 7q0 4 3 9z" />
    <glyph glyph-name="idieresis" unicode="&#xef;" horiz-adv-x="267" 
d="M74 483h119q17 0 17 -17v-450q0 -16 -17 -16h-119q-16 0 -16 16v450q0 17 16 17zM-40 633q0 38 20.5 62t54.5 24t54.5 -24t20.5 -62t-20 -62q-21 -24 -55 -24t-54.5 24t-20.5 62zM178 695q20 24 53 24q35 0 55.5 -24t20.5 -62t-20.5 -62t-55.5 -24q-33 0 -53.5 24
t-20.5 62t21 62z" />
    <glyph glyph-name="eth" unicode="&#xf0;" 
d="M413 633q152 -149 152 -370q0 -129 -73.5 -202.5t-191.5 -73.5q-115 0 -190 69.5t-75 176.5q0 105 74 172.5t185 67.5q46 0 83 -12q-22 55 -70 99l-81 -57q-13 -9 -22 3l-26 35q-9 14 3 23l61 43q-40 24 -82 41q-16 8 -9 22l42 81q6 14 22 9q74 -29 138 -76l85 60
q13 9 23 -4l26 -35q9 -14 -4 -23zM300 125q50 0 79.5 30t29.5 78t-29.5 77.5t-79.5 29.5t-80 -29.5t-30 -77.5t30 -78t80 -30z" />
    <glyph glyph-name="ntilde" unicode="&#xf1;" horiz-adv-x="593" 
d="M58 466q0 17 16 17h116q17 0 17 -17v-47h2q40 77 148 77q86 0 134.5 -53.5t48.5 -148.5v-278q0 -16 -16 -16h-120q-16 0 -16 16v239q0 101 -85 101q-44 0 -68.5 -26t-24.5 -76v-238q0 -16 -17 -16h-119q-16 0 -16 16v450zM217 711q35 0 88 -32q32 -19 47 -19q22 0 26 33
q1 16 17 16h72q16 0 16 -21v-5q-7 -135 -104 -135q-37 0 -88 31q-34 20 -47 20q-22 0 -26 -33q-2 -16 -17 -16h-72q-17 0 -17 17q6 144 105 144z" />
    <glyph glyph-name="ograve" unicode="&#xf2;" 
d="M35 241q0 110 74.5 182.5t190.5 72.5t190.5 -72.5t74.5 -182.5t-74 -182q-75 -72 -191 -72t-190.5 72t-74.5 182zM220 158q30 -33 80 -33t80 32.5t30 83.5q0 52 -30 84t-80 32t-80 -32.5t-30 -83.5t30 -83zM136 709q3 6 13 6h135q12 0 20 -11l83 -134q4 -7 4 -11
q0 -8 -15 -8h-110q-14 0 -20 10l-106 134q-5 6 -5 10q0 2 1 4z" />
    <glyph glyph-name="oacute" unicode="&#xf3;" 
d="M110 424q74 72 190 72t190.5 -72.5t74.5 -182.5t-74 -182q-75 -72 -191 -72t-190.5 72t-74.5 182t75 183zM190 241q0 -51 30 -83q30 -33 80 -33t80 32.5t30 83.5q0 52 -30 84t-80 32t-80 -32.5t-30 -83.5zM205 570l83 134q8 11 20 11h135q10 0 12 -4t2 -6q0 -5 -4 -10
l-107 -134q-6 -10 -19 -10h-111q-10 0 -12 4t-2 6q0 4 3 9z" />
    <glyph glyph-name="ocircumflex" unicode="&#xf4;" 
d="M110 424q74 72 190 72t190.5 -72.5t74.5 -182.5t-74 -182q-75 -72 -191 -72t-190.5 72t-74.5 182t75 183zM220 158q30 -33 80 -33t80 32.5t30 83.5q0 52 -30 84t-80 32t-80 -32.5t-30 -83.5t30 -83zM109 570l110 135q9 10 20 10h121q11 0 20 -10l110 -135q5 -6 5 -10
q0 -2 -2 -6t-13 -4h-107q-13 0 -20 10l-52 67h-3l-53 -67q-7 -10 -20 -10h-107q-10 0 -12 4t-2 6q0 4 5 10z" />
    <glyph glyph-name="otilde" unicode="&#xf5;" 
d="M35 241q0 110 74.5 182.5t190.5 72.5t190.5 -72.5t74.5 -182.5t-74 -182q-75 -72 -191 -72t-190.5 72t-74.5 182zM219 711q35 0 88 -32q32 -19 47 -19q22 0 26 33q1 16 17 16h72q16 0 16 -21v-5q-7 -135 -104 -135q-37 0 -88 31q-34 20 -47 20q-22 0 -26 -33
q-2 -16 -17 -16h-72q-17 0 -17 17q6 144 105 144zM190 241q0 -51 30 -83q30 -33 80 -33t80 32.5t30 83.5q0 52 -30 84t-80 32t-80 -32.5t-30 -83.5z" />
    <glyph glyph-name="odieresis" unicode="&#xf6;" 
d="M110 424q74 72 190 72t190.5 -72.5t74.5 -182.5t-74 -182q-75 -72 -191 -72t-190.5 72t-74.5 182t75 183zM190 241q0 -51 30 -83q30 -33 80 -33t80 32.5t30 83.5q0 52 -30 84t-80 32t-80 -32.5t-30 -83.5zM354 695q23 24 60 24q36 0 59.5 -24.5t23.5 -61.5t-23.5 -61.5
t-59.5 -24.5q-37 0 -60.5 24.5t-23.5 61.5t24 62zM127 695q23 24 59 24q37 0 60.5 -24.5t23.5 -61.5t-23.5 -61.5t-60.5 -24.5q-36 0 -59.5 24.5t-23.5 61.5t24 62z" />
    <glyph glyph-name="divide" unicode="&#xf7;" 
d="M300 432q-39 0 -63 22t-24 58t23.5 58t63.5 22t63.5 -22t23.5 -58t-24 -58t-63 -22zM89 254q-16 0 -16 16v94q0 16 16 16h422q16 0 16 -16v-94q0 -16 -16 -16h-422zM300 42q-40 0 -63.5 22t-23.5 58t24 58t63 22t63 -22t24 -58t-23.5 -58t-63.5 -22z" />
    <glyph glyph-name="oslash" unicode="&#xf8;" 
d="M35 241q0 110 74.5 182.5t190.5 72.5q46 0 85 -12l34 60q5 9 13 9q5 0 10 -4l55 -31q8 -6 8 -13q0 -4 -3 -9l-31 -55q94 -73 94 -200q0 -110 -74.5 -182t-190.5 -72q-46 0 -85 12l-34 -60q-5 -9 -12 -9q-5 0 -11 4l-54 31q-8 6 -8 13q0 4 2 9l32 54q-95 73 -95 200z
M208 153l122 213q-14 3 -30 3q-55 0 -88.5 -36t-33.5 -92q0 -53 30 -88zM300 114q55 0 88 35.5t33 91.5q0 53 -29 88l-122 -212q15 -3 30 -3z" />
    <glyph glyph-name="ugrave" unicode="&#xf9;" horiz-adv-x="590" 
d="M53 189v277q0 17 16 17h119q17 0 17 -17v-239q0 -101 82 -101q44 0 68.5 26.5t24.5 75.5v238q0 17 17 17h119q16 0 16 -17v-450q0 -16 -16 -16h-116q-16 0 -16 16v48h-3q-40 -77 -148 -77q-85 0 -132.5 53t-47.5 149zM128 709q3 6 13 6h135q12 0 20 -11l83 -134
q4 -7 4 -11q0 -8 -15 -8h-110q-14 0 -20 10l-106 134q-5 6 -5 10q0 2 1 4z" />
    <glyph glyph-name="uacute" unicode="&#xfa;" horiz-adv-x="590" 
d="M53 466q0 17 16 17h119q17 0 17 -17v-239q0 -101 82 -101q44 0 68.5 26.5t24.5 75.5v238q0 17 17 17h119q16 0 16 -17v-450q0 -16 -16 -16h-116q-16 0 -16 16v48h-3q-40 -77 -148 -77q-85 0 -132.5 53t-47.5 149v277zM197 570l83 134q8 11 20 11h135q10 0 12 -4t2 -6
q0 -5 -4 -10l-107 -134q-6 -10 -19 -10h-111q-10 0 -12 4t-2 6q0 4 3 9z" />
    <glyph glyph-name="ucircumflex" unicode="&#xfb;" horiz-adv-x="590" 
d="M53 466q0 17 16 17h119q17 0 17 -17v-239q0 -101 82 -101q44 0 68.5 26.5t24.5 75.5v238q0 17 17 17h119q16 0 16 -17v-450q0 -16 -16 -16h-116q-16 0 -16 16v48h-3q-40 -77 -148 -77q-85 0 -132.5 53t-47.5 149v277zM101 570l110 135q9 10 20 10h121q11 0 20 -10
l110 -135q5 -6 5 -10q0 -2 -2 -6t-13 -4h-107q-13 0 -20 10l-52 67h-3l-53 -67q-7 -10 -20 -10h-107q-10 0 -12 4t-2 6q0 4 5 10z" />
    <glyph glyph-name="udieresis" unicode="&#xfc;" horiz-adv-x="590" 
d="M69 483h119q17 0 17 -17v-239q0 -101 82 -101q44 0 68.5 26.5t24.5 75.5v238q0 17 17 17h119q16 0 16 -17v-450q0 -16 -16 -16h-116q-16 0 -16 16v48h-3q-40 -77 -148 -77q-85 0 -132.5 53t-47.5 149v277q0 17 16 17zM346 695q23 24 60 24q36 0 59.5 -24.5t23.5 -61.5
t-23.5 -61.5t-59.5 -24.5q-37 0 -60.5 24.5t-23.5 61.5t24 62zM119 695q23 24 59 24q37 0 60.5 -24.5t23.5 -61.5t-23.5 -61.5t-60.5 -24.5q-36 0 -59.5 24.5t-23.5 61.5t24 62z" />
    <glyph glyph-name="yacute" unicode="&#xfd;" horiz-adv-x="595" 
d="M68 -42h113q13 0 18 -15q17 -47 90 -47q103 0 103 108v75h-4q-40 -73 -149 -73q-86 0 -134 52t-48 147v261q0 17 17 17h119q16 0 16 -17v-224q0 -101 84 -101q43 0 68 26.5t25 75.5v223q0 17 16 17h119q17 0 17 -17v-462q0 -109 -66.5 -171t-182.5 -62
q-104 0 -165.5 45.5t-71.5 124.5v4q0 13 16 13zM200 570l83 134q8 11 20 11h135q10 0 12 -4t2 -6q0 -5 -4 -10l-107 -134q-6 -10 -19 -10h-111q-10 0 -12 4t-2 6q0 4 3 9z" />
    <glyph glyph-name="thorn" unicode="&#xfe;" horiz-adv-x="616" 
d="M356 496q97 0 161 -72t64 -183q0 -110 -64 -182t-162 -72q-100 0 -142 72h-3v-259q0 -16 -17 -16h-119q-16 0 -16 16v884q0 16 16 16h119q17 0 17 -16v-260h4q41 72 142 72zM315 125q51 0 81 32.5t30 83.5q0 52 -30 84t-81 32q-50 0 -80 -32t-30 -84q0 -51 30 -83.5
t80 -32.5z" />
    <glyph glyph-name="ydieresis" unicode="&#xff;" horiz-adv-x="595" 
d="M68 -42h113q13 0 18 -15q17 -47 90 -47q103 0 103 108v75h-4q-40 -73 -149 -73q-86 0 -134 52t-48 147v261q0 17 17 17h119q16 0 16 -17v-224q0 -101 84 -101q43 0 68 26.5t25 75.5v223q0 17 16 17h119q17 0 17 -17v-462q0 -109 -66.5 -171t-182.5 -62
q-104 0 -165.5 45.5t-71.5 124.5v4q0 13 16 13zM122 695q23 24 59 24q37 0 60.5 -24.5t23.5 -61.5t-23.5 -61.5t-60.5 -24.5q-36 0 -59.5 24.5t-23.5 61.5t24 62zM349 695q23 24 60 24q36 0 59.5 -24.5t23.5 -61.5t-23.5 -61.5t-59.5 -24.5q-37 0 -60.5 24.5t-23.5 61.5
t24 62z" />
    <glyph glyph-name="Amacron" unicode="&#x100;" horiz-adv-x="742" 
d="M15 19l261 668q4 13 19 13h150q16 0 20 -13l262 -668q1 -5 1 -8q0 -11 -14 -11h-136q-14 0 -18 13l-40 109h-299l-40 -109q-4 -13 -19 -13h-134q-15 0 -15 10q0 4 2 9zM212 796v82q0 16 17 16h284q17 0 17 -16v-82q0 -16 -17 -16h-284q-17 0 -17 16zM274 265h193l-95 258
h-3z" />
    <glyph glyph-name="amacron" unicode="&#x101;" horiz-adv-x="614" 
d="M35 241q0 111 64 183t164 72q101 0 142 -72h3v42q0 17 16 17h116q16 0 16 -17v-450q0 -16 -16 -16h-116q-16 0 -16 16v43h-2q-42 -72 -143 -72q-100 0 -164 72t-64 182zM190 241q0 -51 30 -83.5t80 -32.5t80.5 32.5t30.5 83.5q0 52 -30.5 84t-80.5 32t-80 -32
q-30 -33 -30 -84zM154 579v82q0 16 17 16h284q17 0 17 -16v-82q0 -16 -17 -16h-284q-17 0 -17 16z" />
    <glyph glyph-name="Abreve" unicode="&#x102;" horiz-adv-x="742" 
d="M15 19l261 668q4 13 19 13h150q16 0 20 -13l262 -668q1 -5 1 -8q0 -11 -14 -11h-136q-14 0 -18 13l-40 109h-299l-40 -109q-4 -13 -19 -13h-134q-15 0 -15 10q0 4 2 9zM195 910q0 16 16 16h85q15 0 18 -16q6 -52 57 -52t57 52q3 16 18 16h85q16 0 16 -16q0 -67 -47 -108
q-48 -41 -129 -41t-128.5 41t-47.5 108zM274 265h193l-95 258h-3z" />
    <glyph glyph-name="abreve" unicode="&#x103;" horiz-adv-x="614" 
d="M35 241q0 111 64 183t164 72q101 0 142 -72h3v42q0 17 16 17h116q16 0 16 -17v-450q0 -16 -16 -16h-116q-16 0 -16 16v43h-2q-42 -72 -143 -72q-100 0 -164 72t-64 182zM220 158q30 -33 80 -33t80.5 32.5t30.5 83.5q0 52 -30.5 84t-80.5 32t-80 -32q-30 -33 -30 -84
t30 -83zM137 693q0 16 16 16h85q15 0 18 -16q6 -52 57 -52t57 52q3 16 18 16h85q16 0 16 -16q0 -67 -47 -108q-48 -41 -129 -41t-128.5 41t-47.5 108z" />
    <glyph glyph-name="Aogonek" unicode="&#x104;" horiz-adv-x="742" 
d="M15 19l261 668q4 13 19 13h150q16 0 20 -13l262 -669q3 -7 3 -12q0 -9 -8 -13q-45 -24 -62 -41.5t-17 -35.5q0 -29 47 -29q17 0 27 1h5q12 0 12 -14v-71q0 -15 -16 -18q-24 -5 -53 -5q-63 0 -99.5 28.5t-36.5 75.5q0 75 81 116h-29q-16 0 -21 13l-40 109h-299l-40 -109
q-4 -13 -19 -13h-134q-15 0 -15 10q0 4 2 9zM274 265h193l-95 258h-3z" />
    <glyph glyph-name="aogonek" unicode="&#x105;" horiz-adv-x="614" 
d="M35 241q0 111 64 183t164 72q101 0 142 -72h3v42q0 17 16 17h116q16 0 16 -17v-453q0 -13 -12 -20q-45 -24 -62 -41.5t-17 -35.5q0 -29 47 -29q17 0 27 1h5q12 0 12 -14v-71q0 -15 -16 -18q-24 -5 -53 -5q-63 0 -99.5 28.5t-36.5 75.5q0 75 81 116h-8q-16 0 -16 16v43h-2
q-42 -72 -143 -72q-100 0 -164 72t-64 182zM190 241q0 -51 30 -83.5t80 -32.5t80.5 32.5t30.5 83.5q0 52 -30.5 84t-80.5 32t-80 -32q-30 -33 -30 -84z" />
    <glyph glyph-name="Cacute" unicode="&#x106;" horiz-adv-x="802" 
d="M148 608q104 105 262 105q131 0 226.5 -74t118.5 -203v-5q0 -13 -14 -13h-135q-15 0 -18 14q-17 63 -63.5 96t-113.5 33q-91 0 -146 -58t-55 -153t55 -153t146 -58q67 0 113.5 33t63.5 96q3 14 18 14h135q14 0 14 -14v-5q-23 -129 -118.5 -202.5t-226.5 -73.5
q-158 0 -262 105t-104 258t104 258zM316 787l83 134q8 11 20 11h135q10 0 12 -4t2 -6q0 -5 -4 -10l-107 -134q-6 -10 -19 -10h-111q-10 0 -12 4t-2 6q0 4 3 9z" />
    <glyph glyph-name="cacute" unicode="&#x107;" horiz-adv-x="580" 
d="M35 241q0 110 71.5 182.5t188.5 72.5q99 0 167 -54t81 -142v-5q0 -13 -15 -13h-123q-13 0 -18 15q-18 60 -91 60q-49 0 -77.5 -31.5t-28.5 -84.5t28.5 -84.5t77.5 -31.5q71 0 90 61q5 14 19 14h122q16 0 16 -12v-4q-13 -89 -80.5 -143t-167.5 -54q-116 0 -188 72.5
t-72 181.5zM202 570l83 134q8 11 20 11h135q10 0 12 -4t2 -6q0 -5 -4 -10l-107 -134q-6 -10 -19 -10h-111q-10 0 -12 4t-2 6q0 4 3 9z" />
    <glyph glyph-name="Ccircumflex" unicode="&#x108;" horiz-adv-x="802" 
d="M44 350q0 153 104 258t262 105q131 0 226.5 -74t118.5 -203v-5q0 -13 -14 -13h-135q-15 0 -18 14q-17 63 -63.5 96t-113.5 33q-91 0 -146 -58t-55 -153t55 -153t146 -58q67 0 113.5 33t63.5 96q3 14 18 14h135q14 0 14 -14v-5q-23 -129 -118.5 -202.5t-226.5 -73.5
q-158 0 -262 105t-104 258zM220 787l110 135q9 10 20 10h121q11 0 20 -10l110 -135q5 -6 5 -10q0 -2 -2 -6t-13 -4h-107q-13 0 -20 10l-52 67h-3l-53 -67q-7 -10 -20 -10h-107q-10 0 -12 4t-2 6q0 4 5 10z" />
    <glyph glyph-name="ccircumflex" unicode="&#x109;" horiz-adv-x="580" 
d="M35 241q0 110 71.5 182.5t188.5 72.5q99 0 167 -54t81 -142v-5q0 -13 -15 -13h-123q-13 0 -18 15q-18 60 -91 60q-49 0 -77.5 -31.5t-28.5 -84.5t28.5 -84.5t77.5 -31.5q71 0 90 61q5 14 19 14h122q16 0 16 -12v-4q-13 -89 -80.5 -143t-167.5 -54q-116 0 -188 72.5
t-72 181.5zM106 570l110 135q9 10 20 10h121q11 0 20 -10l110 -135q5 -6 5 -10q0 -2 -2 -6t-13 -4h-107q-13 0 -20 10l-52 67h-3l-53 -67q-7 -10 -20 -10h-107q-10 0 -12 4t-2 6q0 4 5 10z" />
    <glyph glyph-name="Cdotaccent" unicode="&#x10a;" horiz-adv-x="802" 
d="M44 350q0 153 104 258t262 105q131 0 226.5 -74t118.5 -203v-5q0 -13 -14 -13h-135q-15 0 -18 14q-17 63 -63.5 96t-113.5 33q-91 0 -146 -58t-55 -153t55 -153t146 -58q67 0 113.5 33t63.5 96q3 14 18 14h135q14 0 14 -14v-5q-23 -129 -118.5 -202.5t-226.5 -73.5
q-158 0 -262 105t-104 258zM344 922q27 26 67 26t67 -26t27 -66q0 -39 -27 -65t-67 -26t-67 26t-27 65q0 40 27 66z" />
    <glyph glyph-name="cdotaccent" unicode="&#x10b;" horiz-adv-x="580" 
d="M35 241q0 110 71.5 182.5t188.5 72.5q99 0 167 -54t81 -142v-5q0 -13 -15 -13h-123q-13 0 -18 15q-18 60 -91 60q-49 0 -77.5 -31.5t-28.5 -84.5t28.5 -84.5t77.5 -31.5q71 0 90 61q5 14 19 14h122q16 0 16 -12v-4q-13 -89 -80.5 -143t-167.5 -54q-116 0 -188 72.5
t-72 181.5zM202 639q0 40 27 66t67 26t67 -26t27 -66q0 -39 -27 -65t-67 -26t-67 26t-27 65z" />
    <glyph glyph-name="Ccaron" unicode="&#x10c;" horiz-adv-x="802" 
d="M44 350q0 153 104 258t262 105q131 0 226.5 -74t118.5 -203v-5q0 -13 -14 -13h-135q-15 0 -18 14q-17 63 -63.5 96t-113.5 33q-91 0 -146 -58t-55 -153t55 -153t146 -58q67 0 113.5 33t63.5 96q3 14 18 14h135q14 0 14 -14v-5q-23 -129 -118.5 -202.5t-226.5 -73.5
q-158 0 -262 105t-104 258zM216 926q3 6 13 6h107q13 0 20 -10l52 -68h4l52 68q7 10 20 10h107q11 0 13 -4t2 -6q0 -4 -5 -10l-110 -135q-9 -10 -20 -10h-121q-11 0 -20 10l-110 135q-5 6 -5 10q0 2 1 4z" />
    <glyph glyph-name="ccaron" unicode="&#x10d;" horiz-adv-x="580" 
d="M107 424q71 72 188 72q99 0 167 -54t81 -142v-5q0 -13 -15 -13h-123q-13 0 -18 15q-18 60 -91 60q-49 0 -77.5 -31.5t-28.5 -84.5t28.5 -84.5t77.5 -31.5q71 0 90 61q5 14 19 14h122q16 0 16 -12v-4q-13 -89 -80.5 -143t-167.5 -54q-116 0 -188 72.5t-72 181.5
q0 110 72 183zM102 709q3 6 13 6h107q13 0 20 -10l52 -68h4l52 68q7 10 20 10h107q11 0 13 -4t2 -6q0 -4 -5 -10l-110 -135q-9 -10 -20 -10h-121q-11 0 -20 10l-110 135q-5 6 -5 10q0 2 1 4z" />
    <glyph glyph-name="Dcaron" unicode="&#x10e;" horiz-adv-x="724" 
d="M88 700h236q157 0 256.5 -97.5t99.5 -252.5t-99.5 -252.5t-256.5 -97.5h-236q-16 0 -16 16v668q0 16 16 16zM234 550v-400h87q89 0 140.5 53.5t51.5 146.5t-51.5 146.5t-140.5 53.5h-87zM122 926q3 6 13 6h107q13 0 20 -10l52 -68h4l52 68q7 10 20 10h107q11 0 13 -4
t2 -6q0 -4 -5 -10l-110 -135q-9 -10 -20 -10h-121q-11 0 -20 10l-110 135q-5 6 -5 10q0 2 1 4z" />
    <glyph glyph-name="dcaron" unicode="&#x10f;" horiz-adv-x="795" 
d="M35 241q0 111 64 183t162 72q100 0 141 -72h5v260q0 16 16 16h119q17 0 17 -16v-668q0 -16 -17 -16h-117q-16 0 -16 16v43h-3q-42 -72 -143 -72q-99 0 -163.5 72t-64.5 182zM190 241q0 -51 30.5 -83.5t80.5 -32.5t80.5 32.5t30.5 83.5q0 52 -30.5 84t-80.5 32t-80.5 -32
t-30.5 -84zM654 713h119q16 0 16 -16v-2l-18 -261q-1 -15 -16 -15h-101q-16 0 -16 16v261q0 17 16 17z" />
    <glyph glyph-name="Dcroat" unicode="&#x110;" horiz-adv-x="743" 
d="M23 410h68v274q0 16 16 16h236q157 0 256 -97.5t99 -252.5t-99 -252.5t-256 -97.5h-236q-16 0 -16 16v273h-68q-17 0 -17 16v89q0 16 17 16zM252 150h87q90 0 141.5 53.5t51.5 146.5t-51.5 146.5t-141.5 53.5h-87v-140h121q16 0 16 -16v-89q0 -16 -16 -16h-121v-139z" />
    <glyph glyph-name="dcroat" unicode="&#x111;" horiz-adv-x="625" 
d="M613 625q17 0 17 -16v-72q0 -16 -17 -16h-54v-505q0 -16 -17 -16h-117q-16 0 -16 16v43h-3q-42 -72 -144 -72q-98 0 -162.5 69.5t-64.5 172.5q0 102 64.5 172t161.5 70q100 0 141 -71h5v121h-144q-16 0 -16 16v72q0 16 16 16h144v59q0 16 16 16h119q17 0 17 -16v-59h54z
M190 229q0 -47 30 -77t80 -30t80.5 30t30.5 77t-30.5 77t-80.5 30t-80 -30t-30 -77z" />
    <glyph glyph-name="Emacron" unicode="&#x112;" horiz-adv-x="617" 
d="M72 16v668q0 16 16 16h465q16 0 16 -16v-116q0 -17 -16 -17h-319v-128h249q16 0 16 -17v-112q0 -17 -16 -17h-249v-128h323q16 0 16 -17v-116q0 -16 -16 -16h-469q-16 0 -16 16zM158 878q0 16 17 16h284q17 0 17 -16v-82q0 -16 -17 -16h-284q-17 0 -17 16v82z" />
    <glyph glyph-name="emacron" unicode="&#x113;" horiz-adv-x="586" 
d="M35 240q0 111 72.5 183.5t187.5 72.5q113 0 184.5 -70.5t71.5 -184.5v-16q0 -25 -24 -25h-341q16 -95 115 -95q70 0 92 40q7 13 18 13h112q8 0 12 -3.5t4 -6.5q0 -2 -1 -4q-20 -70 -83 -113.5t-156 -43.5q-119 0 -191.5 71t-72.5 182zM135 661q0 16 17 16h284
q17 0 17 -16v-82q0 -16 -17 -16h-284q-17 0 -17 16v82zM188 293h210q-17 86 -101 86q-88 0 -109 -86z" />
    <glyph glyph-name="Ebreve" unicode="&#x114;" horiz-adv-x="617" 
d="M72 16v668q0 16 16 16h465q16 0 16 -16v-116q0 -17 -16 -17h-319v-128h249q16 0 16 -17v-112q0 -17 -16 -17h-249v-128h323q16 0 16 -17v-116q0 -16 -16 -16h-469q-16 0 -16 16zM141 910q0 16 16 16h85q15 0 18 -16q6 -52 57 -52t57 52q3 16 18 16h85q16 0 16 -16
q0 -67 -47 -108q-48 -41 -129 -41t-128.5 41t-47.5 108z" />
    <glyph glyph-name="ebreve" unicode="&#x115;" horiz-adv-x="586" 
d="M108 424q72 72 187 72q113 0 184.5 -70.5t71.5 -184.5v-16q0 -25 -24 -25h-341q16 -95 115 -95q70 0 92 40q7 13 18 13h112q8 0 12 -3.5t4 -6.5q0 -2 -1 -4q-20 -70 -83 -113.5t-156 -43.5q-119 0 -191.5 71t-72.5 182t73 184zM118 693q0 16 16 16h85q15 0 18 -16
q6 -52 57 -52t57 52q3 16 18 16h85q16 0 16 -16q0 -67 -47 -108q-48 -41 -129 -41t-128.5 41t-47.5 108zM188 293h210q-17 86 -101 86q-88 0 -109 -86z" />
    <glyph glyph-name="Edotaccent" unicode="&#x116;" horiz-adv-x="617" 
d="M72 16v668q0 16 16 16h465q16 0 16 -16v-116q0 -17 -16 -17h-319v-128h249q16 0 16 -17v-112q0 -17 -16 -17h-249v-128h323q16 0 16 -17v-116q0 -16 -16 -16h-469q-16 0 -16 16zM250 922q27 26 67 26t67 -26t27 -66q0 -39 -27 -65t-67 -26t-67 26t-27 65q0 40 27 66z" />
    <glyph glyph-name="edotaccent" unicode="&#x117;" horiz-adv-x="586" 
d="M35 240q0 111 72.5 183.5t187.5 72.5q113 0 184.5 -70.5t71.5 -184.5v-16q0 -25 -24 -25h-341q16 -95 115 -95q70 0 92 40q7 13 18 13h112q8 0 12 -3.5t4 -6.5q0 -2 -1 -4q-20 -70 -83 -113.5t-156 -43.5q-119 0 -191.5 71t-72.5 182zM200 639q0 40 27 66t67 26t67 -26
t27 -66q0 -39 -27 -65t-67 -26t-67 26t-27 65zM188 293h210q-17 86 -101 86q-88 0 -109 -86z" />
    <glyph glyph-name="Eogonek" unicode="&#x118;" horiz-adv-x="617" 
d="M88 700h465q16 0 16 -16v-116q0 -17 -16 -17h-319v-128h249q16 0 16 -17v-112q0 -17 -16 -17h-249v-128h323q16 0 16 -17v-119q0 -13 -12 -20q-45 -24 -62 -41.5t-17 -35.5q0 -29 47 -29q17 0 27 1h5q12 0 12 -14v-71q0 -15 -16 -18q-24 -5 -53 -5q-63 0 -99.5 28.5
t-36.5 75.5q0 75 81 116h-361q-16 0 -16 16v668q0 16 16 16z" />
    <glyph glyph-name="eogonek" unicode="&#x119;" horiz-adv-x="586" 
d="M35 240q0 111 72.5 183.5t187.5 72.5q113 0 184.5 -70.5t71.5 -184.5v-16q0 -25 -24 -25h-341q16 -95 115 -95q70 0 92 40q7 13 18 13h112q8 0 12 -3.5t4 -6.5q0 -2 -1 -4q-25 -91 -117 -132q-68 -41 -68 -71t48 -30q16 0 26 2h4q14 0 14 -15v-71q0 -15 -16 -18
q-24 -5 -53 -5q-64 0 -100.5 28.5t-36.5 75.5q0 43 32 80q-107 9 -171.5 78.5t-64.5 173.5zM398 293q-17 86 -101 86q-88 0 -109 -86h210z" />
    <glyph glyph-name="Ecaron" unicode="&#x11a;" horiz-adv-x="617" 
d="M88 700h465q16 0 16 -16v-116q0 -17 -16 -17h-319v-128h249q16 0 16 -17v-112q0 -17 -16 -17h-249v-128h323q16 0 16 -17v-116q0 -16 -16 -16h-469q-16 0 -16 16v668q0 16 16 16zM123 926q3 6 13 6h107q13 0 20 -10l52 -68h4l52 68q7 10 20 10h107q11 0 13 -4t2 -6
q0 -4 -5 -10l-110 -135q-9 -10 -20 -10h-121q-11 0 -20 10l-110 135q-5 6 -5 10q0 2 1 4z" />
    <glyph glyph-name="ecaron" unicode="&#x11b;" horiz-adv-x="586" 
d="M35 240q0 111 72.5 183.5t187.5 72.5q113 0 184.5 -70.5t71.5 -184.5v-16q0 -25 -24 -25h-341q16 -95 115 -95q70 0 92 40q7 13 18 13h112q8 0 12 -3.5t4 -6.5q0 -2 -1 -4q-20 -70 -83 -113.5t-156 -43.5q-119 0 -191.5 71t-72.5 182zM99 709q3 6 13 6h107q13 0 20 -10
l52 -68h4l52 68q7 10 20 10h107q11 0 13 -4t2 -6q0 -4 -5 -10l-110 -135q-9 -10 -20 -10h-121q-11 0 -20 10l-110 135q-5 6 -5 10q0 2 1 4zM188 293h210q-17 86 -101 86q-88 0 -109 -86z" />
    <glyph glyph-name="Gcircumflex" unicode="&#x11c;" horiz-adv-x="805" 
d="M149 609q104 104 263 104q122 0 213 -63.5t118 -166.5q1 -4 1 -7q0 -11 -15 -11h-142q-13 0 -19 13q-17 39 -58.5 61.5t-97.5 22.5q-92 0 -147 -57.5t-55 -154.5q0 -98 56 -155t152 -57q74 0 121.5 35.5t60.5 100.5h-170q-17 0 -17 16v92q0 17 17 17h314q17 0 17 -17v-50
q0 -154 -98 -249.5t-250 -95.5q-160 0 -264.5 104t-104.5 259q0 154 105 259zM221 787l110 135q9 10 20 10h121q11 0 20 -10l110 -135q5 -6 5 -10q0 -2 -2 -6t-13 -4h-107q-13 0 -20 10l-52 67h-3l-53 -67q-7 -10 -20 -10h-107q-10 0 -12 4t-2 6q0 4 5 10z" />
    <glyph glyph-name="gcircumflex" unicode="&#x11d;" horiz-adv-x="614" 
d="M100 425q64 71 162 71q102 0 143 -72h4v42q0 17 16 17h115q16 0 16 -17v-454q0 -113 -70 -177t-194 -64q-105 0 -171 47t-77 128v4q0 13 16 13h115q13 0 18 -14q17 -53 100 -53q118 0 118 116v61h-5q-42 -71 -144 -71q-98 0 -162.5 67.5t-64.5 175.5q0 109 65 180z
M220 163q30 -32 80 -32t80.5 31.5t30.5 81.5t-30.5 82t-80.5 32t-80 -32t-30 -82q0 -49 30 -81zM118 570l110 135q9 10 20 10h121q11 0 20 -10l110 -135q5 -6 5 -10q0 -2 -2 -6t-13 -4h-107q-13 0 -20 10l-52 67h-3l-53 -67q-7 -10 -20 -10h-107q-10 0 -12 4t-2 6q0 4 5 10z
" />
    <glyph glyph-name="Gbreve" unicode="&#x11e;" horiz-adv-x="805" 
d="M149 609q104 104 263 104q122 0 213 -63.5t118 -166.5q1 -4 1 -7q0 -11 -15 -11h-142q-13 0 -19 13q-17 39 -58.5 61.5t-97.5 22.5q-92 0 -147 -57.5t-55 -154.5q0 -98 56 -155t152 -57q74 0 121.5 35.5t60.5 100.5h-170q-17 0 -17 16v92q0 17 17 17h314q17 0 17 -17v-50
q0 -154 -98 -249.5t-250 -95.5q-160 0 -264.5 104t-104.5 259q0 154 105 259zM236 910q0 16 16 16h85q15 0 18 -16q6 -52 57 -52t57 52q3 16 18 16h85q16 0 16 -16q0 -67 -47 -108q-48 -41 -129 -41t-128.5 41t-47.5 108z" />
    <glyph glyph-name="gbreve" unicode="&#x11f;" horiz-adv-x="614" 
d="M100 425q64 71 162 71q102 0 143 -72h4v42q0 17 16 17h115q16 0 16 -17v-454q0 -113 -70 -177t-194 -64q-105 0 -171 47t-77 128v4q0 13 16 13h115q13 0 18 -14q17 -53 100 -53q118 0 118 116v61h-5q-42 -71 -144 -71q-98 0 -162.5 67.5t-64.5 175.5q0 109 65 180z
M132 693q0 16 16 16h85q15 0 18 -16q6 -52 57 -52t57 52q3 16 18 16h85q16 0 16 -16q0 -67 -47 -108q-48 -41 -129 -41t-128.5 41t-47.5 108zM190 244q0 -49 30 -81t80 -32t80.5 31.5t30.5 81.5t-30.5 82t-80.5 32t-80 -32t-30 -82z" />
    <glyph glyph-name="Gdotaccent" unicode="&#x120;" horiz-adv-x="805" 
d="M44 350q0 154 104.5 258.5t263.5 104.5q122 0 213 -63.5t118 -166.5q1 -4 1 -7q0 -11 -15 -11h-142q-13 0 -19 13q-17 39 -58.5 61.5t-97.5 22.5q-92 0 -147 -57.5t-55 -154.5q0 -98 56 -155t152 -57q74 0 121.5 35.5t60.5 100.5h-170q-17 0 -17 16v92q0 17 17 17h314
q17 0 17 -17v-50q0 -154 -98 -249.5t-250 -95.5q-160 0 -264.5 104t-104.5 259zM345 922q27 26 67 26t67 -26t27 -66q0 -39 -27 -65t-67 -26t-67 26t-27 65q0 40 27 66z" />
    <glyph glyph-name="gdotaccent" unicode="&#x121;" horiz-adv-x="614" 
d="M35 245q0 109 64.5 180t162.5 71q102 0 143 -72h4v42q0 17 16 17h115q16 0 16 -17v-454q0 -113 -70 -177t-194 -64q-105 0 -171 47t-77 128v4q0 13 16 13h115q13 0 18 -14q17 -53 100 -53q118 0 118 116v61h-5q-42 -71 -144 -71q-98 0 -162.5 67.5t-64.5 175.5zM190 244
q0 -49 30 -81t80 -32t80.5 31.5t30.5 81.5t-30.5 82t-80.5 32t-80 -32t-30 -82zM214 639q0 40 27 66t67 26t67 -26t27 -66q0 -39 -27 -65t-67 -26t-67 26t-27 65z" />
    <glyph glyph-name="uni0122" unicode="&#x122;" horiz-adv-x="805" 
d="M44 350q0 154 104.5 258.5t263.5 104.5q122 0 213 -63.5t118 -166.5q1 -4 1 -7q0 -11 -15 -11h-142q-13 0 -19 13q-17 39 -58.5 61.5t-97.5 22.5q-92 0 -147 -57.5t-55 -154.5q0 -98 56 -155t152 -57q74 0 121.5 35.5t60.5 100.5h-170q-17 0 -17 16v92q0 17 17 17h314
q17 0 17 -17v-50q0 -154 -98 -249.5t-250 -95.5q-160 0 -264.5 104t-104.5 259zM317 -247l17 156q1 16 16 16h115q15 0 15 -12q0 -3 -1 -7l-43 -156q-3 -14 -18 -14h-86q-15 0 -15 14v3z" />
    <glyph glyph-name="uni0123" unicode="&#x123;" horiz-adv-x="614" 
d="M100 425q64 71 162 71q102 0 143 -72h4v42q0 17 16 17h115q16 0 16 -17v-454q0 -113 -70 -177t-194 -64q-105 0 -171 47t-77 128v4q0 13 16 13h115q13 0 18 -14q17 -53 100 -53q118 0 118 116v61h-5q-42 -71 -144 -71q-98 0 -162.5 67.5t-64.5 175.5q0 109 65 180z
M220 163q30 -32 80 -32t80.5 31.5t30.5 81.5t-30.5 82t-80.5 32t-80 -32t-30 -82q0 -49 30 -81zM238 588l42 155q4 14 19 14h85q15 0 15 -12v-5l-16 -155q-1 -16 -17 -16h-114q-15 0 -15 12q0 3 1 7z" />
    <glyph glyph-name="Hcircumflex" unicode="&#x124;" horiz-adv-x="745" 
d="M88 700h129q17 0 17 -16v-270h278v270q0 16 16 16h129q16 0 16 -16v-668q0 -16 -16 -16h-129q-16 0 -16 16v247h-278v-247q0 -16 -17 -16h-129q-16 0 -16 16v668q0 16 16 16zM182 787l110 135q9 10 20 10h121q11 0 20 -10l110 -135q5 -6 5 -10q0 -2 -2 -6t-13 -4h-107
q-13 0 -20 10l-52 67h-3l-53 -67q-7 -10 -20 -10h-107q-10 0 -12 4t-2 6q0 4 5 10z" />
    <glyph glyph-name="hcircumflex" unicode="&#x125;" horiz-adv-x="593" 
d="M74 700h119q17 0 17 -16v-265h3q40 77 145 77q85 0 133.5 -53.5t48.5 -148.5v-278q0 -16 -16 -16h-120q-16 0 -16 16v239q0 101 -85 101q-44 0 -68.5 -26t-24.5 -76v-238q0 -16 -17 -16h-119q-16 0 -16 16v668q0 16 16 16zM-58 787l110 135q9 10 20 10h121q11 0 20 -10
l110 -135q5 -6 5 -10q0 -2 -2 -6t-13 -4h-107q-13 0 -20 10l-52 67h-3l-53 -67q-7 -10 -20 -10h-107q-10 0 -12 4t-2 6q0 4 5 10z" />
    <glyph glyph-name="Hbar" unicode="&#x126;" horiz-adv-x="778" 
d="M36 611h52v73q0 16 16 16h129q17 0 17 -16v-73h278v73q0 16 16 16h129q17 0 17 -16v-73h51q17 0 17 -16v-71q0 -17 -17 -17h-51v-491q0 -16 -17 -16h-129q-16 0 -16 16v247h-278v-247q0 -16 -17 -16h-129q-16 0 -16 16v491h-52q-16 0 -16 17v71q0 16 16 16zM528 414v93
h-278v-93h278z" />
    <glyph glyph-name="hbar" unicode="&#x127;" horiz-adv-x="603" 
d="M370 471q84 0 132.5 -53t48.5 -148v-254q0 -16 -17 -16h-119q-16 0 -16 16v215q0 101 -86 101q-44 0 -68.5 -27t-24.5 -75v-214q0 -16 -17 -16h-120q-17 0 -17 16v505h-55q-16 0 -16 16v72q0 16 16 16h55v59q0 16 17 16h119q16 0 16 -16v-59h144q16 0 16 -16v-72
q0 -16 -16 -16h-144v-126h5q40 76 147 76z" />
    <glyph glyph-name="Itilde" unicode="&#x128;" horiz-adv-x="306" 
d="M72 684q0 16 16 16h129q17 0 17 -16v-668q0 -16 -17 -16h-129q-16 0 -16 16v668zM72 928q35 0 88 -32q32 -19 47 -19q22 0 26 33q1 16 17 16h72q16 0 16 -21v-5q-8 -135 -104 -135q-37 0 -88 31q-34 20 -47 20q-22 0 -26 -33q-2 -16 -17 -16h-72q-17 0 -17 17
q6 144 105 144z" />
    <glyph glyph-name="itilde" unicode="&#x129;" horiz-adv-x="267" 
d="M58 466q0 17 16 17h119q17 0 17 -17v-450q0 -16 -17 -16h-119q-16 0 -16 16v450zM-21 566q0 74 18.5 109.5t60.5 35.5q32 0 70 -26.5t46 -26.5q18 0 19 35q1 16 18 16h60q16 0 16 -16q0 -75 -19 -110t-60 -35q-24 0 -47.5 13t-40.5 26.5t-26 13.5q-18 0 -21 -35
q-2 -16 -17 -16h-60q-17 0 -17 16z" />
    <glyph glyph-name="Imacron" unicode="&#x12a;" horiz-adv-x="306" 
d="M72 684q0 16 16 16h129q17 0 17 -16v-668q0 -16 -17 -16h-129q-16 0 -16 16v668zM11 894h284q17 0 17 -16v-82q0 -16 -17 -16h-284q-17 0 -17 16v82q0 16 17 16z" />
    <glyph glyph-name="imacron" unicode="&#x12b;" horiz-adv-x="267" 
d="M58 466q0 17 16 17h119q17 0 17 -17v-450q0 -16 -17 -16h-119q-16 0 -16 16v450zM19 677h230q16 0 16 -16v-82q0 -16 -16 -16h-230q-17 0 -17 16v82q0 16 17 16z" />
    <glyph glyph-name="Ibreve" unicode="&#x12c;" horiz-adv-x="306" 
d="M72 684q0 16 16 16h129q17 0 17 -16v-668q0 -16 -17 -16h-129q-16 0 -16 16v668zM-23 910q0 16 16 16h85q15 0 18 -16q6 -52 57 -52t57 52q3 16 18 16h85q16 0 16 -16q0 -67 -47 -108q-48 -41 -129 -41t-128.5 41t-47.5 108z" />
    <glyph glyph-name="ibreve" unicode="&#x12d;" horiz-adv-x="267" 
d="M74 483h119q17 0 17 -17v-450q0 -16 -17 -16h-119q-16 0 -16 16v450q0 17 16 17zM4 709h76q16 0 16 -17q4 -54 38 -54q32 0 36 54q2 17 17 17h76q8 0 12 -3.5t4 -9.5v-2q-2 -72 -38 -111t-107 -39q-72 0 -108.5 39t-38.5 111q0 15 17 15z" />
    <glyph glyph-name="Iogonek" unicode="&#x12e;" horiz-adv-x="306" 
d="M109 0h-21q-16 0 -16 16v668q0 16 16 16h129q17 0 17 -16v-668q0 -5 -1 -7q-1 -10 -12 -16q-45 -24 -62 -41.5t-17 -35.5q0 -29 47 -29q17 0 27 1h5q12 0 12 -14v-71q0 -15 -16 -18q-24 -5 -53 -5q-63 0 -99.5 28.5t-36.5 75.5q0 75 81 116z" />
    <glyph glyph-name="iogonek" unicode="&#x12f;" horiz-adv-x="267" 
d="M85 0h-11q-16 0 -16 16v450q0 17 16 17h119q17 0 17 -17v-450q0 -5 -1 -7q-1 -10 -12 -16q-45 -24 -62 -41.5t-17 -35.5q0 -29 47 -29q17 0 27 1h5q12 0 12 -14v-71q0 -15 -16 -18q-24 -5 -53 -5q-63 0 -99.5 28.5t-36.5 75.5q0 75 81 116zM67 705q27 26 67 26t67 -26
t27 -66q0 -39 -27 -65t-67 -26t-67 26t-27 65q0 40 27 66z" />
    <glyph glyph-name="Idotaccent" unicode="&#x130;" horiz-adv-x="306" 
d="M72 684q0 16 16 16h129q17 0 17 -16v-668q0 -16 -17 -16h-129q-16 0 -16 16v668zM59 856q0 40 27 66t67 26t67 -26t27 -66q0 -39 -27 -65t-67 -26t-67 26t-27 65z" />
    <glyph glyph-name="dotlessi" unicode="&#x131;" horiz-adv-x="267" 
d="M74 483h119q17 0 17 -17v-450q0 -16 -17 -16h-119q-16 0 -16 16v450q0 17 16 17z" />
    <glyph glyph-name="Jcircumflex" unicode="&#x134;" horiz-adv-x="643" 
d="M44 244v81q0 16 16 16h131q17 0 17 -16v-68q0 -62 25 -90t77 -28q105 0 105 118v294h-257q-16 0 -16 16v117q0 16 16 16h402q17 0 17 -16v-436q0 -126 -69 -193.5t-198 -67.5q-128 0 -197 67t-69 190zM174 787l110 135q9 10 20 10h121q11 0 20 -10l110 -135q5 -6 5 -10
q0 -2 -2 -6t-13 -4h-107q-13 0 -20 10l-52 67h-3l-53 -67q-7 -10 -20 -10h-107q-10 0 -12 4t-2 6q0 4 5 10z" />
    <glyph glyph-name="jcircumflex" unicode="&#x135;" horiz-adv-x="267" 
d="M-60 -102q0 14 13 14h5t11 -0.5t12 -0.5q42 0 59.5 18t17.5 65v472q0 17 16 17h119q17 0 17 -17v-485q0 -109 -46.5 -159.5t-142.5 -50.5q-39 0 -67 7q-14 3 -14 17v103zM-22 570l73 134q8 11 19 11h126q11 0 19 -11l74 -134q3 -6 3 -11q0 -9 -15 -9h-87q-14 0 -19 12
l-36 72h-4l-35 -72q-6 -12 -20 -12h-87q-9 0 -11.5 4t-2.5 7q0 4 3 9z" />
    <glyph glyph-name="uni0136" unicode="&#x136;" horiz-adv-x="708" 
d="M72 16v668q0 16 16 16h129q17 0 17 -16v-305h60l185 310q5 11 20 11h152q10 0 12 -4t2 -6q0 -4 -3 -10l-201 -335q179 -79 213 -327v-3q0 -15 -16 -15h-145q-14 0 -17 15q-18 114 -71.5 161.5t-155.5 47.5h-35v-208q0 -16 -17 -16h-129q-16 0 -16 16zM289 -247l17 156
q1 16 16 16h115q15 0 15 -12q0 -3 -1 -7l-43 -156q-3 -14 -18 -14h-86q-15 0 -15 14v3z" />
    <glyph glyph-name="uni0137" unicode="&#x137;" horiz-adv-x="577" 
d="M58 16v668q0 16 16 16h119q17 0 17 -16v-381h49l111 169q8 11 20 11h141q10 0 12 -4t2 -7q0 -4 -3 -9l-134 -199q120 -71 145 -246v-5q0 -13 -15 -13h-128q-15 0 -18 15q-15 82 -53 116t-111 34h-18v-149q0 -16 -17 -16h-119q-16 0 -16 16zM204 -247l17 156q1 16 16 16
h115q15 0 15 -12q0 -3 -1 -7l-43 -156q-3 -14 -18 -14h-86q-15 0 -15 14v3z" />
    <glyph glyph-name="Lacute" unicode="&#x139;" horiz-adv-x="575" 
d="M88 700h129q17 0 17 -16v-534h299q16 0 16 -16v-118q0 -16 -16 -16h-445q-16 0 -16 16v668q0 16 16 16zM58 787l83 134q8 11 20 11h135q10 0 12 -4t2 -6q0 -5 -4 -10l-107 -134q-6 -10 -19 -10h-111q-10 0 -12 4t-2 6q0 4 3 9z" />
    <glyph glyph-name="lacute" unicode="&#x13a;" horiz-adv-x="267" 
d="M58 684q0 16 16 16h119q17 0 17 -16v-668q0 -16 -17 -16h-119q-16 0 -16 16v668zM39 787l83 134q8 11 20 11h135q10 0 12 -4t2 -6q0 -5 -4 -10l-107 -134q-6 -10 -19 -10h-111q-10 0 -12 4t-2 6q0 4 3 9z" />
    <glyph glyph-name="uni013B" unicode="&#x13b;" horiz-adv-x="575" 
d="M88 700h129q17 0 17 -16v-534h299q16 0 16 -16v-118q0 -16 -16 -16h-445q-16 0 -16 16v668q0 16 16 16zM218 -247l17 156q1 16 16 16h115q15 0 15 -12q0 -3 -1 -7l-43 -156q-3 -14 -18 -14h-86q-15 0 -15 14v3z" />
    <glyph glyph-name="uni013C" unicode="&#x13c;" horiz-adv-x="267" 
d="M58 16v668q0 16 16 16h119q17 0 17 -16v-668q0 -16 -17 -16h-119q-16 0 -16 16zM41 -247l17 156q1 16 16 16h115q15 0 15 -12q0 -3 -1 -7l-43 -156q-3 -14 -18 -14h-86q-15 0 -15 14v3z" />
    <glyph glyph-name="Lcaron" unicode="&#x13d;" horiz-adv-x="575" 
d="M88 700h129q17 0 17 -16v-534h299q16 0 16 -16v-118q0 -16 -16 -16h-445q-16 0 -16 16v668q0 16 16 16zM345 436l24 261q1 16 16 16h96q15 0 15 -14v-4l-26 -261q-1 -15 -17 -15h-92q-16 0 -16 14v3z" />
    <glyph glyph-name="lcaron" unicode="&#x13e;" horiz-adv-x="445" 
d="M58 16v668q0 16 16 16h119q17 0 17 -16v-668q0 -16 -17 -16h-119q-16 0 -16 16zM289 696q0 17 16 17h118q16 0 16 -16v-2l-18 -261q-1 -15 -16 -15h-100q-16 0 -16 16v261z" />
    <glyph glyph-name="Ldot" unicode="&#x13f;" horiz-adv-x="580" 
d="M72 684q0 16 16 16h129q17 0 17 -16v-534h299q16 0 16 -16v-118q0 -16 -16 -16h-445q-16 0 -16 16v668zM360 430q26 26 69 26t69.5 -26.5t26.5 -69.5q0 -42 -26 -68q-27 -26 -70 -26t-69.5 26t-26.5 68q0 43 27 70z" />
    <glyph glyph-name="ldot" unicode="&#x140;" horiz-adv-x="474" 
d="M74 700h119q17 0 17 -16v-668q0 -16 -17 -16h-119q-16 0 -16 16v668q0 16 16 16zM273 331q0 42 26.5 69t68.5 27q43 0 69.5 -27t26.5 -69t-26 -68q-27 -26 -70 -26t-69 26t-26 68z" />
    <glyph glyph-name="Lslash" unicode="&#x141;" horiz-adv-x="616" 
d="M10 188v114q0 13 12 19l86 45v318q0 16 16 16h129q17 0 17 -16v-232l198 104q5 3 9 3q3 0 7 -2.5t4 -11.5v-114q0 -13 -12 -20l-206 -109v-152h298q17 0 17 -16v-118q0 -16 -17 -16h-444q-16 0 -16 16v201l-78 -41q-5 -2 -9 -2q-3 0 -7 2.5t-4 11.5z" />
    <glyph glyph-name="lslash" unicode="&#x142;" horiz-adv-x="383" 
d="M25 301l91 57v326q0 16 16 16h119q17 0 17 -16v-227l81 50q5 3 9 3q3 0 7 -2t4 -12v-111q0 -15 -11 -20l-90 -56v-293q0 -16 -17 -16h-119q-16 0 -16 16v194l-82 -50q-5 -3 -10 -3q-2 0 -6 1.5t-4 11.5v111q0 12 11 20z" />
    <glyph glyph-name="Nacute" unicode="&#x143;" horiz-adv-x="768" 
d="M72 684q0 16 16 16h125q14 0 21 -10l298 -420h2v414q0 16 16 16h129q17 0 17 -16v-668q0 -16 -17 -16h-126q-13 0 -20 10l-298 419h-1v-413q0 -16 -17 -16h-129q-16 0 -16 16v668zM289 787l83 134q8 11 20 11h135q10 0 12 -4t2 -6q0 -5 -4 -10l-107 -134q-6 -10 -19 -10
h-111q-10 0 -12 4t-2 6q0 4 3 9z" />
    <glyph glyph-name="nacute" unicode="&#x144;" horiz-adv-x="593" 
d="M74 483h116q17 0 17 -17v-47h2q40 77 148 77q86 0 134.5 -53.5t48.5 -148.5v-278q0 -16 -16 -16h-120q-16 0 -16 16v239q0 101 -85 101q-44 0 -68.5 -26t-24.5 -76v-238q0 -16 -17 -16h-119q-16 0 -16 16v450q0 17 16 17zM203 570l83 134q8 11 20 11h135q10 0 12 -4t2 -6
q0 -5 -4 -10l-107 -134q-6 -10 -19 -10h-111q-10 0 -12 4t-2 6q0 4 3 9z" />
    <glyph glyph-name="uni0145" unicode="&#x145;" horiz-adv-x="768" 
d="M88 700h125q14 0 21 -10l298 -420h2v414q0 16 16 16h129q17 0 17 -16v-668q0 -16 -17 -16h-126q-13 0 -20 10l-298 419h-1v-413q0 -16 -17 -16h-129q-16 0 -16 16v668q0 16 16 16zM291 -247l17 156q1 16 16 16h115q15 0 15 -12q0 -3 -1 -7l-43 -156q-3 -14 -18 -14h-86
q-15 0 -15 14v3z" />
    <glyph glyph-name="uni0146" unicode="&#x146;" horiz-adv-x="593" 
d="M58 466q0 17 16 17h116q17 0 17 -17v-47h2q40 77 148 77q86 0 134.5 -53.5t48.5 -148.5v-278q0 -16 -16 -16h-120q-16 0 -16 16v239q0 101 -85 101q-44 0 -68.5 -26t-24.5 -76v-238q0 -16 -17 -16h-119q-16 0 -16 16v450zM206 -247l17 156q1 16 16 16h115q15 0 15 -12
q0 -3 -1 -7l-43 -156q-3 -14 -18 -14h-86q-15 0 -15 14v3z" />
    <glyph glyph-name="Ncaron" unicode="&#x147;" horiz-adv-x="768" 
d="M72 16v668q0 16 16 16h125q14 0 21 -10l298 -420h2v414q0 16 16 16h129q17 0 17 -16v-668q0 -16 -17 -16h-126q-13 0 -20 10l-298 419h-1v-413q0 -16 -17 -16h-129q-16 0 -16 16zM189 926q3 6 13 6h107q13 0 20 -10l52 -68h4l52 68q7 10 20 10h107q11 0 13 -4t2 -6
q0 -4 -5 -10l-110 -135q-9 -10 -20 -10h-121q-11 0 -20 10l-110 135q-5 6 -5 10q0 2 1 4z" />
    <glyph glyph-name="ncaron" unicode="&#x148;" horiz-adv-x="593" 
d="M58 16v450q0 17 16 17h116q17 0 17 -17v-47h2q40 77 148 77q86 0 134.5 -53.5t48.5 -148.5v-278q0 -16 -16 -16h-120q-16 0 -16 16v239q0 101 -85 101q-44 0 -68.5 -26t-24.5 -76v-238q0 -16 -17 -16h-119q-16 0 -16 16zM103 709q3 6 13 6h107q13 0 20 -10l52 -68h4
l52 68q7 10 20 10h107q11 0 13 -4t2 -6q0 -4 -5 -10l-110 -135q-9 -10 -20 -10h-121q-11 0 -20 10l-110 135q-5 6 -5 10q0 2 1 4z" />
    <glyph glyph-name="Eng" unicode="&#x14a;" horiz-adv-x="768" 
d="M679 700q17 0 17 -16v-694q0 -103 -44 -150.5t-142 -47.5q-32 0 -65 5q-15 1 -15 17v106q0 17 17 15q7 -1 23 -1q39 0 54 14.5t16 52.5l-305 428h-1v-413q0 -16 -17 -16h-129q-16 0 -16 16v668q0 16 16 16h125q14 0 21 -10l298 -420h2v414q0 16 16 16h129z" />
    <glyph glyph-name="eng" unicode="&#x14b;" horiz-adv-x="593" 
d="M357 496q86 0 134.5 -53.5t48.5 -148.5v-295q0 -104 -44 -151.5t-143 -47.5q-38 0 -65 4q-15 3 -15 18v103q0 17 18 15q7 -1 23 -1q43 0 58.5 16t15.5 58v242q0 101 -85 101q-44 0 -68.5 -26t-24.5 -76v-238q0 -16 -17 -16h-119q-16 0 -16 16v450q0 17 16 17h116
q17 0 17 -17v-47h2q40 77 148 77z" />
    <glyph glyph-name="Omacron" unicode="&#x14c;" horiz-adv-x="818" 
d="M44 350q0 154 105 258.5t260 104.5t260 -104.5t105 -258.5t-105 -258q-105 -105 -260 -105t-260 104.5t-105 258.5zM210 350q0 -92 55 -151q55 -60 144 -60t144 59.5t55 151.5t-55 151.5t-144 59.5t-144 -59.5t-55 -151.5zM250 796v82q0 16 17 16h284q17 0 17 -16v-82
q0 -16 -17 -16h-284q-17 0 -17 16z" />
    <glyph glyph-name="omacron" unicode="&#x14d;" 
d="M110 424q74 72 190 72t190.5 -72.5t74.5 -182.5t-74 -182q-75 -72 -191 -72t-190.5 72t-74.5 182t75 183zM220 158q30 -33 80 -33t80 32.5t30 83.5q0 52 -30 84t-80 32t-80 -32.5t-30 -83.5t30 -83zM141 661q0 16 17 16h284q17 0 17 -16v-82q0 -16 -17 -16h-284
q-17 0 -17 16v82z" />
    <glyph glyph-name="Obreve" unicode="&#x14e;" horiz-adv-x="818" 
d="M44 350q0 154 105 258.5t260 104.5t260 -104.5t105 -258.5t-105 -258q-105 -105 -260 -105t-260 104.5t-105 258.5zM265 199q55 -60 144 -60t144 59.5t55 151.5t-55 151.5t-144 59.5t-144 -59.5t-55 -151.5t55 -151zM249 926h85q15 0 18 -16q6 -52 57 -52t57 52
q3 16 18 16h85q16 0 16 -16q0 -67 -47 -108q-48 -41 -129 -41t-128.5 41t-47.5 108q0 16 16 16z" />
    <glyph glyph-name="obreve" unicode="&#x14f;" 
d="M110 424q74 72 190 72t190.5 -72.5t74.5 -182.5t-74 -182q-75 -72 -191 -72t-190.5 72t-74.5 182t75 183zM190 241q0 -51 30 -83q30 -33 80 -33t80 32.5t30 83.5q0 52 -30 84t-80 32t-80 -32.5t-30 -83.5zM140 709h85q15 0 18 -16q6 -52 57 -52t57 52q3 16 18 16h85
q16 0 16 -16q0 -67 -47 -108q-48 -41 -129 -41t-128.5 41t-47.5 108q0 16 16 16z" />
    <glyph glyph-name="Ohungarumlaut" unicode="&#x150;" horiz-adv-x="818" 
d="M44 350q0 154 105 258.5t260 104.5t260 -104.5t105 -258.5t-105 -258q-105 -105 -260 -105t-260 104.5t-105 258.5zM265 199q55 -60 144 -60t144 59.5t55 151.5t-55 151.5t-144 59.5t-144 -59.5t-55 -151.5t55 -151zM424 787l83 134q5 11 19 11h104q11 0 13 -3.5t2 -6.5
q0 -4 -4 -10l-96 -134q-7 -10 -20 -10h-89q-10 0 -12.5 4t-2.5 6q0 4 3 9zM222 787l83 134q5 11 19 11h103q11 0 13 -3.5t2 -6.5q0 -4 -4 -10l-95 -134q-8 -10 -20 -10h-89q-10 0 -12.5 4t-2.5 6q0 4 3 9z" />
    <glyph glyph-name="ohungarumlaut" unicode="&#x151;" 
d="M110 424q74 72 190 72t190.5 -72.5t74.5 -182.5t-74 -182q-75 -72 -191 -72t-190.5 72t-74.5 182t75 183zM220 158q30 -33 80 -33t80 32.5t30 83.5q0 52 -30 84t-80 32t-80 -32.5t-30 -83.5t30 -83zM315 570l83 134q5 11 19 11h104q11 0 13 -3.5t2 -6.5q0 -4 -4 -10
l-96 -134q-7 -10 -20 -10h-89q-10 0 -12.5 4t-2.5 6q0 4 3 9zM113 570l83 134q5 11 19 11h103q11 0 13 -3.5t2 -6.5q0 -4 -4 -10l-95 -134q-8 -10 -20 -10h-89q-10 0 -12.5 4t-2.5 6q0 4 3 9z" />
    <glyph glyph-name="OE" unicode="&#x152;" horiz-adv-x="1036" 
d="M976 149q16 0 16 -17v-116q0 -16 -16 -16h-576q-157 0 -256.5 97.5t-99.5 252.5t99.5 252.5t256.5 97.5h572q16 0 16 -16v-116q0 -17 -16 -17h-320v-128h250q16 0 16 -17v-112q0 -17 -16 -17h-250v-128h324zM210 350q0 -93 52 -146.5t141 -53.5h87v400h-87
q-89 0 -141 -53.5t-52 -146.5z" />
    <glyph glyph-name="oe" unicode="&#x153;" horiz-adv-x="961" 
d="M110 424q74 72 190 72q115 0 182 -76h4q70 76 184 76q112 0 184 -71t72 -184v-15q0 -26 -23 -26h-342q16 -92 115 -92q68 0 91 38q7 12 20 12h111q15 0 15 -12q0 -3 -1 -7q-22 -68 -84.5 -110t-153.5 -42q-120 0 -189 74h-4q-68 -74 -181 -74q-116 0 -190.5 72t-74.5 182
t75 183zM190 241q0 -51 30 -83q30 -33 80 -33t80 32.5t30 83.5q0 52 -30 84t-80 32t-80 -32.5t-30 -83.5zM774 291q-17 85 -102 85q-88 0 -109 -85h211z" />
    <glyph glyph-name="Racute" unicode="&#x154;" horiz-adv-x="692" 
d="M72 684q0 16 16 16h274q129 0 201 -64t72 -177q0 -71 -30 -125.5t-86 -83.5q97 -69 123 -232v-5q0 -13 -15 -13h-145q-15 0 -18 15q-21 110 -65.5 155t-125.5 45h-39v-199q0 -16 -17 -16h-129q-16 0 -16 16v668zM234 366h124q111 0 111 93q0 92 -111 92h-124v-185z
M244 787l83 134q8 11 20 11h135q10 0 12 -4t2 -6q0 -5 -4 -10l-107 -134q-6 -10 -19 -10h-111q-10 0 -12 4t-2 6q0 4 3 9z" />
    <glyph glyph-name="racute" unicode="&#x155;" horiz-adv-x="407" 
d="M58 16v450q0 17 16 17h115q17 0 17 -17v-65h2q19 44 57 67.5t85 23.5q9 0 27 -2q13 -3 13 -19v-113q0 -15 -14 -15h-3q-11 2 -33 2q-130 0 -130 -153v-176q0 -16 -17 -16h-119q-16 0 -16 16zM117 570l83 134q8 11 20 11h135q10 0 12 -4t2 -6q0 -5 -4 -10l-107 -134
q-6 -10 -19 -10h-111q-10 0 -12 4t-2 6q0 4 3 9z" />
    <glyph glyph-name="uni0156" unicode="&#x156;" horiz-adv-x="692" 
d="M88 700h274q129 0 201 -64t72 -177q0 -71 -30 -125.5t-86 -83.5q97 -69 123 -232v-5q0 -13 -15 -13h-145q-15 0 -18 15q-21 110 -65.5 155t-125.5 45h-39v-199q0 -16 -17 -16h-129q-16 0 -16 16v668q0 16 16 16zM234 366h124q111 0 111 93q0 92 -111 92h-124v-185z
M256 -247l17 156q1 16 16 16h115q15 0 15 -12q0 -3 -1 -7l-43 -156q-3 -14 -18 -14h-86q-15 0 -15 14v3z" />
    <glyph glyph-name="uni0157" unicode="&#x157;" horiz-adv-x="407" 
d="M74 483h115q17 0 17 -17v-65h2q19 44 57 67.5t85 23.5q9 0 27 -2q13 -3 13 -19v-113q0 -15 -14 -15h-3q-11 2 -33 2q-130 0 -130 -153v-176q0 -16 -17 -16h-119q-16 0 -16 16v450q0 17 16 17zM41 -247l17 156q1 16 16 16h115q15 0 15 -12q0 -3 -1 -7l-43 -156
q-3 -14 -18 -14h-86q-15 0 -15 14v3z" />
    <glyph glyph-name="Rcaron" unicode="&#x158;" horiz-adv-x="692" 
d="M88 700h274q129 0 201 -64t72 -177q0 -71 -30 -125.5t-86 -83.5q97 -69 123 -232v-5q0 -13 -15 -13h-145q-15 0 -18 15q-21 110 -65.5 155t-125.5 45h-39v-199q0 -16 -17 -16h-129q-16 0 -16 16v668q0 16 16 16zM234 366h124q111 0 111 93q0 92 -111 92h-124v-185z
M144 926q3 6 13 6h107q13 0 20 -10l52 -68h4l52 68q7 10 20 10h107q11 0 13 -4t2 -6q0 -4 -5 -10l-110 -135q-9 -10 -20 -10h-121q-11 0 -20 10l-110 135q-5 6 -5 10q0 2 1 4z" />
    <glyph glyph-name="rcaron" unicode="&#x159;" horiz-adv-x="407" 
d="M58 16v450q0 17 16 17h115q17 0 17 -17v-65h2q19 44 57 67.5t85 23.5q9 0 27 -2q13 -3 13 -19v-113q0 -15 -14 -15h-3q-11 2 -33 2q-130 0 -130 -153v-176q0 -16 -17 -16h-119q-16 0 -16 16zM17 709q3 6 13 6h107q13 0 20 -10l52 -68h4l52 68q7 10 20 10h107q11 0 13 -4
t2 -6q0 -4 -5 -10l-110 -135q-9 -10 -20 -10h-121q-11 0 -20 10l-110 135q-5 6 -5 10q0 2 1 4z" />
    <glyph glyph-name="Sacute" unicode="&#x15a;" horiz-adv-x="634" 
d="M56 217h128q14 0 18 -15q18 -74 120 -74q56 0 84.5 20t28.5 56q0 62 -93 77l-99 16q-201 33 -201 201q0 99 70.5 157t200.5 58q126 0 196 -55t79 -158v-5q0 -12 -15 -12h-129q-14 0 -17 16q-10 73 -114 73q-108 0 -108 -73q0 -29 23 -46t83 -26l99 -16q187 -30 187 -201
q0 -107 -72 -165t-202 -58q-127 0 -199.5 55t-83.5 157v5q0 13 16 13zM222 787l83 134q8 11 20 11h135q10 0 12 -4t2 -6q0 -5 -4 -10l-107 -134q-6 -10 -19 -10h-111q-10 0 -12 4t-2 6q0 4 3 9z" />
    <glyph glyph-name="sacute" unicode="&#x15b;" horiz-adv-x="512" 
d="M36 143q4 5 12 5h117q12 0 18 -14q14 -37 74 -37q73 0 73 45q0 20 -16 30t-57 15l-66 7q-78 9 -118 47t-40 97q0 72 57 115t165 43q197 0 219 -148v-5q0 -12 -15 -12h-115q-14 0 -18 15q-12 39 -72 39q-71 0 -71 -43q0 -16 16.5 -25.5t58.5 -14.5l66 -8q156 -17 156 -145
q0 -76 -58.5 -119t-163.5 -43q-100 0 -157 38t-68 106q-1 2 -1 4q0 4 4 8zM160 570l83 134q8 11 20 11h135q10 0 12 -4t2 -6q0 -5 -4 -10l-107 -134q-6 -10 -19 -10h-111q-10 0 -12 4t-2 6q0 4 3 9z" />
    <glyph glyph-name="Scircumflex" unicode="&#x15c;" horiz-adv-x="634" 
d="M56 217h128q14 0 18 -15q18 -74 120 -74q56 0 84.5 20t28.5 56q0 62 -93 77l-99 16q-201 33 -201 201q0 99 70.5 157t200.5 58q126 0 196 -55t79 -158v-5q0 -12 -15 -12h-129q-14 0 -17 16q-10 73 -114 73q-108 0 -108 -73q0 -29 23 -46t83 -26l99 -16q187 -30 187 -201
q0 -107 -72 -165t-202 -58q-127 0 -199.5 55t-83.5 157v5q0 13 16 13zM126 787l110 135q9 10 20 10h121q11 0 20 -10l110 -135q5 -6 5 -10q0 -2 -2 -6t-13 -4h-107q-13 0 -20 10l-52 67h-3l-53 -67q-7 -10 -20 -10h-107q-10 0 -12 4t-2 6q0 4 5 10z" />
    <glyph glyph-name="scircumflex" unicode="&#x15d;" horiz-adv-x="512" 
d="M36 143q4 5 12 5h117q12 0 18 -14q14 -37 74 -37q73 0 73 45q0 20 -16 30t-57 15l-66 7q-78 9 -118 47t-40 97q0 72 57 115t165 43q197 0 219 -148v-5q0 -12 -15 -12h-115q-14 0 -18 15q-12 39 -72 39q-71 0 -71 -43q0 -16 16.5 -25.5t58.5 -14.5l66 -8q156 -17 156 -145
q0 -76 -58.5 -119t-163.5 -43q-100 0 -157 38t-68 106q-1 2 -1 4q0 4 4 8zM64 570l110 135q9 10 20 10h121q11 0 20 -10l110 -135q5 -6 5 -10q0 -2 -2 -6t-13 -4h-107q-13 0 -20 10l-52 67h-3l-53 -67q-7 -10 -20 -10h-107q-10 0 -12 4t-2 6q0 4 5 10z" />
    <glyph glyph-name="Scedilla" unicode="&#x15e;" horiz-adv-x="634" 
d="M56 217h128q14 0 18 -15q18 -74 120 -74q56 0 84.5 20t28.5 56q0 62 -93 77l-99 16q-201 33 -201 201q0 99 70.5 157t200.5 58q126 0 196 -55t79 -158v-5q0 -12 -15 -12h-129q-14 0 -17 16q-10 73 -114 73q-108 0 -108 -73q0 -29 23 -46t83 -26l99 -16q187 -30 187 -201
q0 -92 -53 -148t-151 -70l-47 -166q-3 -14 -17 -14h-112q-14 0 -14 9q0 4 2 9l59 160q-100 13 -157 66.5t-67 142.5v5q0 13 16 13z" />
    <glyph glyph-name="scedilla" unicode="&#x15f;" horiz-adv-x="512" 
d="M36 143q4 5 12 5h117q12 0 18 -14q14 -37 74 -37q73 0 73 45q0 20 -16 30t-57 15l-66 7q-78 9 -118 47t-40 97q0 72 57 115t165 43q197 0 219 -148v-5q0 -12 -15 -12h-115q-14 0 -18 15q-12 39 -72 39q-71 0 -71 -43q0 -16 16.5 -25.5t58.5 -14.5l66 -8q156 -17 156 -145
q0 -63 -40.5 -104t-116.5 -53l-47 -166q-3 -14 -17 -14h-112q-14 0 -14 9q0 4 2 9l60 162q-143 21 -162 139q-1 2 -1 4q0 4 4 8z" />
    <glyph glyph-name="Scaron" unicode="&#x160;" horiz-adv-x="634" 
d="M56 217h128q14 0 18 -15q18 -74 120 -74q56 0 84.5 20t28.5 56q0 62 -93 77l-99 16q-201 33 -201 201q0 99 70.5 157t200.5 58q126 0 196 -55t79 -158v-5q0 -12 -15 -12h-129q-14 0 -17 16q-10 73 -114 73q-108 0 -108 -73q0 -29 23 -46t83 -26l99 -16q187 -30 187 -201
q0 -107 -72 -165t-202 -58q-127 0 -199.5 55t-83.5 157v5q0 13 16 13zM122 926q3 6 13 6h107q13 0 20 -10l52 -68h4l52 68q7 10 20 10h107q11 0 13 -4t2 -6q0 -4 -5 -10l-110 -135q-9 -10 -20 -10h-121q-11 0 -20 10l-110 135q-5 6 -5 10q0 2 1 4z" />
    <glyph glyph-name="scaron" unicode="&#x161;" horiz-adv-x="512" 
d="M36 143q4 5 12 5h117q12 0 18 -14q14 -37 74 -37q73 0 73 45q0 20 -16 30t-57 15l-66 7q-78 9 -118 47t-40 97q0 72 57 115t165 43q197 0 219 -148v-5q0 -12 -15 -12h-115q-14 0 -18 15q-12 39 -72 39q-71 0 -71 -43q0 -16 16.5 -25.5t58.5 -14.5l66 -8q156 -17 156 -145
q0 -76 -58.5 -119t-163.5 -43q-100 0 -157 38t-68 106q-1 2 -1 4q0 4 4 8zM60 709q3 6 13 6h107q13 0 20 -10l52 -68h4l52 68q7 10 20 10h107q11 0 13 -4t2 -6q0 -4 -5 -10l-110 -135q-9 -10 -20 -10h-121q-11 0 -20 10l-110 135q-5 6 -5 10q0 2 1 4z" />
    <glyph glyph-name="uni0162" unicode="&#x162;" horiz-adv-x="593" 
d="M36 700h522q16 0 16 -16v-118q0 -16 -16 -16h-181v-534q0 -16 -16 -16h-129q-16 0 -16 16v534h-180q-17 0 -17 16v118q0 16 17 16zM201 -247l17 156q1 16 16 16h115q15 0 15 -12q0 -3 -1 -7l-43 -156q-3 -14 -18 -14h-86q-15 0 -15 14v3z" />
    <glyph glyph-name="uni0163" unicode="&#x163;" horiz-adv-x="449" 
d="M29 483h78v116q0 17 17 17h119q16 0 16 -17v-116h142q16 0 16 -17v-98q0 -17 -16 -17h-142v-144q0 -45 19 -63.5t64 -18.5q34 0 60 11q5 2 9 2q10 0 10 -14v-101q0 -13 -11 -18q-42 -18 -102 -18q-101 0 -151 48.5t-50 150.5v165h-78q-17 0 -17 17v98q0 17 17 17z
M175 -247l17 156q1 16 16 16h115q15 0 15 -12q0 -3 -1 -7l-43 -156q-3 -14 -18 -14h-86q-15 0 -15 14v3z" />
    <glyph glyph-name="Tcaron" unicode="&#x164;" horiz-adv-x="593" 
d="M19 566v118q0 16 17 16h522q16 0 16 -16v-118q0 -16 -16 -16h-181v-534q0 -16 -16 -16h-129q-16 0 -16 16v534h-180q-17 0 -17 16zM102 926q3 6 13 6h107q13 0 20 -10l52 -68h4l52 68q7 10 20 10h107q11 0 13 -4t2 -6q0 -4 -5 -10l-110 -135q-9 -10 -20 -10h-121
q-11 0 -20 10l-110 135q-5 6 -5 10q0 2 1 4z" />
    <glyph glyph-name="tcaron" unicode="&#x165;" horiz-adv-x="447" 
d="M12 368v98q0 17 17 17h78v116q0 17 17 17h119q16 0 16 -17v-116h142q16 0 16 -17v-98q0 -17 -16 -17h-142v-144q0 -45 19 -63.5t64 -18.5q34 0 60 11q5 2 9 2q10 0 10 -14v-101q0 -13 -11 -18q-42 -18 -102 -18q-101 0 -151 48.5t-50 150.5v165h-78q-17 0 -17 17z
M326 759h97q17 0 17 -15v-3l-16 -191q-1 -16 -17 -16h-81q-17 0 -17 17v191q0 17 17 17z" />
    <glyph glyph-name="Tbar" unicode="&#x166;" horiz-adv-x="593" 
d="M19 684q0 16 17 16h522q16 0 16 -16v-118q0 -16 -16 -16h-181v-154h97q16 0 16 -16v-95q0 -16 -16 -16h-97v-253q0 -16 -16 -16h-129q-16 0 -16 16v253h-97q-16 0 -16 16v95q0 16 16 16h97v154h-180q-17 0 -17 16v118z" />
    <glyph glyph-name="tbar" unicode="&#x167;" horiz-adv-x="463" 
d="M411 136q18 8 18 -12v-101q0 -14 -10 -18q-42 -18 -103 -18q-101 0 -150.5 48.5t-49.5 150.5v21h-77q-17 0 -17 17v55q0 16 17 16h77v67h-77q-17 0 -17 17v87q0 17 17 17h77v116q0 17 16 17h119q17 0 17 -17v-116h140q16 0 16 -17v-87q0 -17 -16 -17h-140v-67h110
q16 0 16 -16v-55q0 -17 -16 -17h-110q0 -45 19 -63.5t63 -18.5q34 0 61 11z" />
    <glyph glyph-name="Utilde" unicode="&#x168;" horiz-adv-x="719" 
d="M82 700h129q17 0 17 -16v-389q0 -79 32.5 -116t98.5 -37t99 37t33 116v389q0 16 16 16h129q17 0 17 -16v-400q0 -142 -77 -219q-77 -78 -217 -78t-216.5 77.5t-76.5 219.5v400q0 16 16 16zM278 928q35 0 88 -32q32 -19 47 -19q22 0 26 33q1 16 17 16h72q16 0 16 -21v-5
q-8 -135 -104 -135q-37 0 -88 31q-34 20 -47 20q-22 0 -26 -33q-2 -16 -17 -16h-72q-17 0 -17 17q6 144 105 144z" />
    <glyph glyph-name="utilde" unicode="&#x169;" horiz-adv-x="590" 
d="M69 483h119q17 0 17 -17v-239q0 -101 82 -101q44 0 68.5 26.5t24.5 75.5v238q0 17 17 17h119q16 0 16 -17v-450q0 -16 -16 -16h-116q-16 0 -16 16v48h-3q-40 -77 -148 -77q-85 0 -132.5 53t-47.5 149v277q0 17 16 17zM106 567q6 144 105 144q35 0 88 -32q32 -19 47 -19
q22 0 26 33q1 16 17 16h72q16 0 16 -21v-5q-7 -135 -104 -135q-37 0 -88 31q-34 20 -47 20q-22 0 -26 -33q-2 -16 -17 -16h-72q-17 0 -17 17z" />
    <glyph glyph-name="Umacron" unicode="&#x16a;" horiz-adv-x="719" 
d="M82 700h129q17 0 17 -16v-389q0 -79 32.5 -116t98.5 -37t99 37t33 116v389q0 16 16 16h129q17 0 17 -16v-400q0 -142 -77 -219q-77 -78 -217 -78t-216.5 77.5t-76.5 219.5v400q0 16 16 16zM200 878q0 16 17 16h284q17 0 17 -16v-82q0 -16 -17 -16h-284q-17 0 -17 16v82z
" />
    <glyph glyph-name="umacron" unicode="&#x16b;" horiz-adv-x="590" 
d="M53 189v277q0 17 16 17h119q17 0 17 -17v-239q0 -101 82 -101q44 0 68.5 26.5t24.5 75.5v238q0 17 17 17h119q16 0 16 -17v-450q0 -16 -16 -16h-116q-16 0 -16 16v48h-3q-40 -77 -148 -77q-85 0 -132.5 53t-47.5 149zM133 661q0 16 17 16h284q17 0 17 -16v-82
q0 -16 -17 -16h-284q-17 0 -17 16v82z" />
    <glyph glyph-name="Ubreve" unicode="&#x16c;" horiz-adv-x="719" 
d="M66 284v400q0 16 16 16h129q17 0 17 -16v-389q0 -79 32.5 -116t98.5 -37t99 37t33 116v389q0 16 16 16h129q17 0 17 -16v-400q0 -142 -77 -219q-77 -78 -217 -78t-216.5 77.5t-76.5 219.5zM183 910q0 16 16 16h85q15 0 18 -16q6 -52 57 -52t57 52q3 16 18 16h85
q16 0 16 -16q0 -67 -47 -108q-48 -41 -129 -41t-128.5 41t-47.5 108z" />
    <glyph glyph-name="ubreve" unicode="&#x16d;" horiz-adv-x="590" 
d="M53 189v277q0 17 16 17h119q17 0 17 -17v-239q0 -101 82 -101q44 0 68.5 26.5t24.5 75.5v238q0 17 17 17h119q16 0 16 -17v-450q0 -16 -16 -16h-116q-16 0 -16 16v48h-3q-40 -77 -148 -77q-85 0 -132.5 53t-47.5 149zM132 709h85q15 0 18 -16q6 -52 57 -52t57 52
q3 16 18 16h85q16 0 16 -16q0 -67 -47 -108q-48 -41 -129 -41t-128.5 41t-47.5 108q0 16 16 16z" />
    <glyph glyph-name="Uring" unicode="&#x16e;" horiz-adv-x="719" 
d="M82 700h129q17 0 17 -16v-389q0 -79 32.5 -116t98.5 -37t99 37t33 116v389q0 16 16 16h129q17 0 17 -16v-400q0 -142 -77 -219q-77 -78 -217 -78t-216.5 77.5t-76.5 219.5v400q0 16 16 16zM259 980q40 38 100 38t100.5 -38t40.5 -93t-40 -93q-41 -38 -101 -38t-100.5 38
t-40.5 93t41 93zM309 887q0 -22 14 -36q13 -14 36 -14t36.5 14t13.5 36t-13.5 36t-36.5 14t-36.5 -14t-13.5 -36z" />
    <glyph glyph-name="uring" unicode="&#x16f;" horiz-adv-x="590" 
d="M53 189v277q0 17 16 17h119q17 0 17 -17v-239q0 -101 82 -101q44 0 68.5 26.5t24.5 75.5v238q0 17 17 17h119q16 0 16 -17v-450q0 -16 -16 -16h-116q-16 0 -16 16v48h-3q-40 -77 -148 -77q-85 0 -132.5 53t-47.5 149zM151 670q0 55 40.5 93t100.5 38t100.5 -38t40.5 -93
t-40 -93q-41 -38 -101 -38t-100.5 38t-40.5 93zM256 634q13 -14 36 -14t36.5 14t13.5 36t-13 36q-14 14 -37 14t-36.5 -14t-13.5 -36t14 -36z" />
    <glyph glyph-name="Uhungarumlaut" unicode="&#x170;" horiz-adv-x="719" 
d="M66 284v400q0 16 16 16h129q17 0 17 -16v-389q0 -79 32.5 -116t98.5 -37t99 37t33 116v389q0 16 16 16h129q17 0 17 -16v-400q0 -142 -77 -219q-77 -78 -217 -78t-216.5 77.5t-76.5 219.5zM374 787l83 134q5 11 19 11h104q11 0 13 -3.5t2 -6.5q0 -4 -4 -10l-96 -134
q-7 -10 -20 -10h-89q-10 0 -12.5 4t-2.5 6q0 4 3 9zM172 787l83 134q5 11 19 11h103q11 0 13 -3.5t2 -6.5q0 -4 -4 -10l-95 -134q-8 -10 -20 -10h-89q-10 0 -12.5 4t-2.5 6q0 4 3 9z" />
    <glyph glyph-name="uhungarumlaut" unicode="&#x171;" horiz-adv-x="590" 
d="M53 189v277q0 17 16 17h119q17 0 17 -17v-239q0 -101 82 -101q44 0 68.5 26.5t24.5 75.5v238q0 17 17 17h119q16 0 16 -17v-450q0 -16 -16 -16h-116q-16 0 -16 16v48h-3q-40 -77 -148 -77q-85 0 -132.5 53t-47.5 149zM307 570l83 134q5 11 19 11h104q11 0 13 -3.5t2 -6.5
q0 -4 -4 -10l-96 -134q-7 -10 -20 -10h-89q-10 0 -12.5 4t-2.5 6q0 4 3 9zM105 570l83 134q5 11 19 11h103q11 0 13 -3.5t2 -6.5q0 -4 -4 -10l-95 -134q-8 -10 -20 -10h-89q-10 0 -12.5 4t-2.5 6q0 4 3 9z" />
    <glyph glyph-name="Uogonek" unicode="&#x172;" horiz-adv-x="719" 
d="M66 684q0 16 16 16h129q17 0 17 -16v-389q0 -79 32.5 -116t98.5 -37t99 37t33 116v389q0 16 16 16h129q17 0 17 -16v-400q0 -104 -42 -174t-120 -101q-51 -27 -70 -45.5t-19 -36.5q0 -30 47 -30q17 0 27 2h4q14 0 14 -14v-72q0 -15 -16 -18q-24 -5 -53 -5
q-64 0 -100.5 29t-36.5 76q0 54 46 93q-128 7 -198 84t-70 212v400z" />
    <glyph glyph-name="uogonek" unicode="&#x173;" horiz-adv-x="590" 
d="M53 189v277q0 17 16 17h119q17 0 17 -17v-239q0 -101 82 -101q44 0 68.5 26.5t24.5 75.5v238q0 17 17 17h119q16 0 16 -17v-453q0 -13 -12 -20q-45 -24 -62 -41.5t-17 -35.5q0 -29 47 -29q17 0 27 1h5q12 0 12 -14v-71q0 -15 -16 -18q-24 -5 -53 -5q-63 0 -99.5 28.5
t-36.5 75.5q0 75 81 116h-8q-16 0 -16 16v48h-3q-40 -77 -148 -77q-85 0 -132.5 53t-47.5 149z" />
    <glyph glyph-name="Wcircumflex" unicode="&#x174;" horiz-adv-x="1057" 
d="M32 700h138q15 0 18 -14l129 -437h3l131 437q3 14 19 14h118q15 0 18 -14l132 -437h3l129 437q3 14 18 14h137q15 0 15 -12q0 -3 -1 -7l-207 -667q-3 -14 -18 -14h-132q-15 0 -18 14l-133 429h-4l-132 -429q-5 -14 -19 -14h-132q-15 0 -18 14l-207 667q-1 5 -1 8
q0 11 14 11zM338 787l110 135q9 10 20 10h121q11 0 20 -10l110 -135q5 -6 5 -10q0 -2 -2 -6t-13 -4h-107q-13 0 -20 10l-52 67h-3l-53 -67q-7 -10 -20 -10h-107q-10 0 -12 4t-2 6q0 4 5 10z" />
    <glyph glyph-name="wcircumflex" unicode="&#x175;" horiz-adv-x="867" 
d="M31 483h126q14 0 19 -14l87 -290h4l93 290q3 14 18 14h110q16 0 19 -14l94 -290h2l88 290q5 14 19 14h126q15 0 15 -10q0 -4 -2 -9l-155 -451q-4 -13 -19 -13h-132q-14 0 -18 13l-90 269h-3l-89 -269q-6 -13 -19 -13h-133q-14 0 -18 13l-156 451q-1 4 -1 7q0 12 15 12z
M243 570l110 135q9 10 20 10h121q11 0 20 -10l110 -135q5 -6 5 -10q0 -2 -2 -6t-13 -4h-107q-13 0 -20 10l-52 67h-3l-53 -67q-7 -10 -20 -10h-107q-10 0 -12 4t-2 6q0 4 5 10z" />
    <glyph glyph-name="Ycircumflex" unicode="&#x176;" horiz-adv-x="682" 
d="M12 695q3 5 13 5h147q13 0 20 -12l148 -264h2l149 264q5 12 19 12h147q10 0 12 -4t2 -6q0 -4 -3 -10l-245 -414v-250q0 -16 -16 -16h-132q-16 0 -16 16v250l-245 414q-3 6 -3 10q0 3 1 5zM151 787l110 135q9 10 20 10h121q11 0 20 -10l110 -135q5 -6 5 -10q0 -2 -2 -6
t-13 -4h-107q-13 0 -20 10l-52 67h-3l-53 -67q-7 -10 -20 -10h-107q-10 0 -12 4t-2 6q0 4 5 10z" />
    <glyph glyph-name="ycircumflex" unicode="&#x177;" horiz-adv-x="595" 
d="M68 -42h113q13 0 18 -15q17 -47 90 -47q103 0 103 108v75h-4q-40 -73 -149 -73q-86 0 -134 52t-48 147v261q0 17 17 17h119q16 0 16 -17v-224q0 -101 84 -101q43 0 68 26.5t25 75.5v223q0 17 16 17h119q17 0 17 -17v-462q0 -109 -66.5 -171t-182.5 -62
q-104 0 -165.5 45.5t-71.5 124.5v4q0 13 16 13zM104 570l110 135q9 10 20 10h121q11 0 20 -10l110 -135q5 -6 5 -10q0 -2 -2 -6t-13 -4h-107q-13 0 -20 10l-52 67h-3l-53 -67q-7 -10 -20 -10h-107q-10 0 -12 4t-2 6q0 4 5 10z" />
    <glyph glyph-name="Ydieresis" unicode="&#x178;" horiz-adv-x="682" 
d="M12 695q3 5 13 5h147q13 0 20 -12l148 -264h2l149 264q5 12 19 12h147q10 0 12 -4t2 -6q0 -4 -3 -10l-245 -414v-250q0 -16 -16 -16h-132q-16 0 -16 16v250l-245 414q-3 6 -3 10q0 3 1 5zM372 850q0 37 23.5 61.5t60.5 24.5q36 0 59.5 -24.5t23.5 -61.5t-23.5 -61.5
t-59.5 -24.5q-37 0 -60.5 24.5t-23.5 61.5zM169 912q23 24 59 24q37 0 60.5 -24.5t23.5 -61.5t-23.5 -61.5t-60.5 -24.5q-36 0 -59.5 24.5t-23.5 61.5t24 62z" />
    <glyph glyph-name="Zacute" unicode="&#x179;" horiz-adv-x="616" 
d="M41 16v92q0 10 7 20l313 423h-300q-16 0 -16 17v116q0 16 16 16h495q16 0 16 -16v-92q0 -10 -6 -20l-314 -423h307q16 0 16 -17v-116q0 -16 -16 -16h-501q-17 0 -17 16zM212 787l83 134q8 11 20 11h135q10 0 12 -4t2 -6q0 -5 -4 -10l-107 -134q-6 -10 -19 -10h-111
q-10 0 -12 4t-2 6q0 4 3 9z" />
    <glyph glyph-name="zacute" unicode="&#x17a;" horiz-adv-x="499" 
d="M35 16v77q0 10 8 21l215 237h-200q-16 0 -16 16v99q0 17 16 17h388q16 0 16 -17v-76q0 -13 -7 -21l-215 -237h207q16 0 16 -17v-99q0 -16 -16 -16h-395q-17 0 -17 16zM155 570l83 134q8 11 20 11h135q10 0 12 -4t2 -6q0 -5 -4 -10l-107 -134q-6 -10 -19 -10h-111
q-10 0 -12 4t-2 6q0 4 3 9z" />
    <glyph glyph-name="Zdotaccent" unicode="&#x17b;" horiz-adv-x="616" 
d="M41 16v92q0 10 7 20l313 423h-300q-16 0 -16 17v116q0 16 16 16h495q16 0 16 -16v-92q0 -10 -6 -20l-314 -423h307q16 0 16 -17v-116q0 -16 -16 -16h-501q-17 0 -17 16zM240 922q27 26 67 26t67 -26t27 -66q0 -39 -27 -65t-67 -26t-67 26t-27 65q0 40 27 66z" />
    <glyph glyph-name="zdotaccent" unicode="&#x17c;" horiz-adv-x="499" 
d="M35 16v77q0 10 8 21l215 237h-200q-16 0 -16 16v99q0 17 16 17h388q16 0 16 -17v-76q0 -13 -7 -21l-215 -237h207q16 0 16 -17v-99q0 -16 -16 -16h-395q-17 0 -17 16zM182 705q27 26 67 26t67 -26t27 -66q0 -39 -27 -65t-67 -26t-67 26t-27 65q0 40 27 66z" />
    <glyph glyph-name="Zcaron" unicode="&#x17d;" horiz-adv-x="616" 
d="M48 128l313 423h-300q-16 0 -16 17v116q0 16 16 16h495q16 0 16 -16v-92q0 -10 -6 -20l-314 -423h307q16 0 16 -17v-116q0 -16 -16 -16h-501q-17 0 -17 16v92q0 10 7 20zM112 926q3 6 13 6h107q13 0 20 -10l52 -68h4l52 68q7 10 20 10h107q11 0 13 -4t2 -6q0 -4 -5 -10
l-110 -135q-9 -10 -20 -10h-121q-11 0 -20 10l-110 135q-5 6 -5 10q0 2 1 4z" />
    <glyph glyph-name="zcaron" unicode="&#x17e;" horiz-adv-x="499" 
d="M43 114l215 237h-200q-16 0 -16 16v99q0 17 16 17h388q16 0 16 -17v-76q0 -13 -7 -21l-215 -237h207q16 0 16 -17v-99q0 -16 -16 -16h-395q-17 0 -17 16v77q0 10 8 21zM55 709q3 6 13 6h107q13 0 20 -10l52 -68h4l52 68q7 10 20 10h107q11 0 13 -4t2 -6q0 -4 -5 -10
l-110 -135q-9 -10 -20 -10h-121q-11 0 -20 10l-110 135q-5 6 -5 10q0 2 1 4z" />
    <glyph glyph-name="florin" unicode="&#x192;" horiz-adv-x="504" 
d="M462 707q14 -3 14 -18v-99q0 -17 -17 -15q-7 1 -21 1q-34 0 -49.5 -12.5t-21.5 -45.5l-14 -74h101q16 0 16 -16v-57q0 -16 -16 -16h-118l-60 -321q-17 -88 -57.5 -124.5t-116.5 -36.5q-34 0 -65 6q-14 3 -14 18v99q0 17 16 15q7 -1 22 -1q33 0 48.5 12.5t22.5 45.5
l54 287h-88q-16 0 -16 16v57q0 16 16 16h105l20 108q17 88 57.5 124.5t115.5 36.5q34 0 66 -6z" />
    <glyph glyph-name="uni01CD" unicode="&#x1cd;" horiz-adv-x="742" 
d="M15 19l261 668q4 13 19 13h150q16 0 20 -13l262 -668q1 -5 1 -8q0 -11 -14 -11h-136q-14 0 -18 13l-40 109h-299l-40 -109q-4 -13 -19 -13h-134q-15 0 -15 10q0 4 2 9zM176 926q3 6 13 6h107q13 0 20 -10l52 -68h4l52 68q7 10 20 10h107q11 0 13 -4t2 -6q0 -4 -5 -10
l-110 -135q-9 -10 -20 -10h-121q-11 0 -20 10l-110 135q-5 6 -5 10q0 2 1 4zM467 265l-95 258h-3l-95 -258h193z" />
    <glyph glyph-name="uni01CE" unicode="&#x1ce;" horiz-adv-x="614" 
d="M99 424q64 72 164 72q101 0 142 -72h3v42q0 17 16 17h116q16 0 16 -17v-450q0 -16 -16 -16h-116q-16 0 -16 16v43h-2q-42 -72 -143 -72q-100 0 -164 72t-64 182q0 111 64 183zM220 158q30 -33 80 -33t80.5 32.5t30.5 83.5q0 52 -30.5 84t-80.5 32t-80 -32
q-30 -33 -30 -84t30 -83zM119 709q3 6 13 6h107q13 0 20 -10l52 -68h4l52 68q7 10 20 10h107q11 0 13 -4t2 -6q0 -4 -5 -10l-110 -135q-9 -10 -20 -10h-121q-11 0 -20 10l-110 135q-5 6 -5 10q0 2 1 4z" />
    <glyph glyph-name="uni01E2" unicode="&#x1e2;" horiz-adv-x="1077" 
d="M10 20l425 669q5 11 19 11h558q17 0 17 -16v-116q0 -17 -17 -17h-319v-128h249q17 0 17 -17v-112q0 -17 -17 -17h-249v-128h323q17 0 17 -17v-116q0 -16 -17 -16h-469q-16 0 -16 16v108h-272l-71 -113q-6 -11 -19 -11h-148q-10 0 -12 4t-2 7q0 4 3 9zM565 796v82
q0 16 17 16h284q17 0 17 -16v-82q0 -16 -17 -16h-284q-17 0 -17 16zM350 269h181v283h-4z" />
    <glyph glyph-name="uni01E3" unicode="&#x1e3;" horiz-adv-x="913" 
d="M30 141q0 146 216 146h116v5q0 44 -18.5 63.5t-62.5 19.5q-63 0 -76 -37q-5 -14 -18 -14h-119q-16 0 -16 14v3q10 74 65.5 114.5t156.5 40.5q123 0 171 -65h3q68 65 174 65q112 0 184 -71t72 -184v-14q0 -27 -26 -27h-339q16 -95 114 -95q70 0 92 40q8 13 19 13h111
q15 0 15 -11q0 -4 -1 -8q-21 -68 -83.5 -110t-153.5 -42q-122 0 -192 76h-3q-55 -76 -193 -76q-101 0 -154.5 41t-53.5 113zM315 677h284q17 0 17 -16v-82q0 -16 -17 -16h-284q-17 0 -17 16v82q0 16 17 16zM726 291q-17 88 -102 88q-90 0 -109 -88h211zM255 105
q49 0 78 20.5t29 52.5v20h-104q-79 0 -79 -46q0 -47 76 -47z" />
    <glyph glyph-name="Gcaron" unicode="&#x1e6;" horiz-adv-x="805" 
d="M149 609q104 104 263 104q122 0 213 -63.5t118 -166.5q1 -4 1 -7q0 -11 -15 -11h-142q-13 0 -19 13q-17 39 -58.5 61.5t-97.5 22.5q-92 0 -147 -57.5t-55 -154.5q0 -98 56 -155t152 -57q74 0 121.5 35.5t60.5 100.5h-170q-17 0 -17 16v92q0 17 17 17h314q17 0 17 -17v-50
q0 -154 -98 -249.5t-250 -95.5q-160 0 -264.5 104t-104.5 259q0 154 105 259zM217 926q3 6 13 6h107q13 0 20 -10l52 -68h4l52 68q7 10 20 10h107q11 0 13 -4t2 -6q0 -4 -5 -10l-110 -135q-9 -10 -20 -10h-121q-11 0 -20 10l-110 135q-5 6 -5 10q0 2 1 4z" />
    <glyph glyph-name="gcaron" unicode="&#x1e7;" horiz-adv-x="614" 
d="M100 425q64 71 162 71q102 0 143 -72h4v42q0 17 16 17h115q16 0 16 -17v-454q0 -113 -70 -177t-194 -64q-105 0 -171 47t-77 128v4q0 13 16 13h115q13 0 18 -14q17 -53 100 -53q118 0 118 116v61h-5q-42 -71 -144 -71q-98 0 -162.5 67.5t-64.5 175.5q0 109 65 180z
M220 163q30 -32 80 -32t80.5 31.5t30.5 81.5t-30.5 82t-80.5 32t-80 -32t-30 -82q0 -49 30 -81zM114 709q3 6 13 6h107q13 0 20 -10l52 -68h4l52 68q7 10 20 10h107q11 0 13 -4t2 -6q0 -4 -5 -10l-110 -135q-9 -10 -20 -10h-121q-11 0 -20 10l-110 135q-5 6 -5 10q0 2 1 4z
" />
    <glyph glyph-name="uni01E8" unicode="&#x1e8;" horiz-adv-x="708" 
d="M88 700h129q17 0 17 -16v-305h60l185 310q5 11 20 11h152q10 0 12 -4t2 -6q0 -4 -3 -10l-201 -335q179 -79 213 -327v-3q0 -15 -16 -15h-145q-14 0 -17 15q-18 114 -71.5 161.5t-155.5 47.5h-35v-208q0 -16 -17 -16h-129q-16 0 -16 16v668q0 16 16 16zM185 926q3 6 13 6
h107q13 0 20 -10l52 -68h4l52 68q7 10 20 10h107q11 0 13 -4t2 -6q0 -4 -5 -10l-110 -135q-9 -10 -20 -10h-121q-11 0 -20 10l-110 135q-5 6 -5 10q0 2 1 4z" />
    <glyph glyph-name="uni01E9" unicode="&#x1e9;" horiz-adv-x="577" 
d="M74 700h119q17 0 17 -16v-381h49l111 169q8 11 20 11h141q10 0 12 -4t2 -7q0 -4 -3 -9l-134 -199q120 -71 145 -246v-5q0 -13 -15 -13h-128q-15 0 -18 15q-15 82 -53 116t-111 34h-18v-149q0 -16 -17 -16h-119q-16 0 -16 16v668q0 16 16 16zM-62 926q3 6 13 6h107
q13 0 20 -10l52 -68h4l52 68q7 10 20 10h107q11 0 13 -4t2 -6q0 -4 -5 -10l-110 -135q-9 -10 -20 -10h-121q-11 0 -20 10l-110 135q-5 6 -5 10q0 2 1 4z" />
    <glyph glyph-name="AEacute" unicode="&#x1fc;" horiz-adv-x="1077" 
d="M10 20l425 669q5 11 19 11h558q17 0 17 -16v-116q0 -17 -17 -17h-319v-128h249q17 0 17 -17v-112q0 -17 -17 -17h-249v-128h323q17 0 17 -17v-116q0 -16 -17 -16h-469q-16 0 -16 16v108h-272l-71 -113q-6 -11 -19 -11h-148q-10 0 -12 4t-2 7q0 4 3 9zM350 269h181v283h-4
zM630 787l83 134q8 11 20 11h135q10 0 12 -4t2 -6q0 -5 -4 -10l-107 -134q-6 -10 -19 -10h-111q-10 0 -12 4t-2 6q0 4 3 9z" />
    <glyph glyph-name="aeacute" unicode="&#x1fd;" horiz-adv-x="913" 
d="M246 287h116v5q0 44 -18.5 63.5t-62.5 19.5q-63 0 -76 -37q-5 -14 -18 -14h-119q-16 0 -16 14v3q10 74 65.5 114.5t156.5 40.5q123 0 171 -65h3q68 65 174 65q112 0 184 -71t72 -184v-14q0 -27 -26 -27h-339q16 -95 114 -95q70 0 92 40q8 13 19 13h111q15 0 15 -11
q0 -4 -1 -8q-21 -68 -83.5 -110t-153.5 -42q-122 0 -192 76h-3q-55 -76 -193 -76q-101 0 -154.5 41t-53.5 113q0 146 216 146zM362 570l83 134q8 11 20 11h135q10 0 12 -4t2 -6q0 -5 -4 -10l-107 -134q-6 -10 -19 -10h-111q-10 0 -12 4t-2 6q0 4 3 9zM726 291
q-17 88 -102 88q-90 0 -109 -88h211zM255 105q49 0 78 20.5t29 52.5v20h-104q-79 0 -79 -46q0 -47 76 -47z" />
    <glyph glyph-name="Oslashacute" unicode="&#x1fe;" horiz-adv-x="818" 
d="M149 609q105 104 260 104q70 0 136 -25l42 72q5 10 12 10q5 0 10 -4l63 -35q8 -6 8 -13q0 -5 -3 -10l-41 -70q65 -50 101.5 -125t36.5 -163q0 -154 -105 -258.5t-260 -104.5q-69 0 -136 24l-42 -72q-5 -9 -12 -9q-5 0 -10 3l-61 35q-8 6 -8 13q0 4 2 9l41 71
q-65 51 -102 126t-37 163q0 154 105 259zM205 350q0 -97 59 -159l212 366q-35 10 -67 10q-91 0 -147.5 -61t-56.5 -156zM343 143q29 -10 66 -10q91 0 147.5 61t56.5 156q0 98 -59 159zM314 787l83 134q8 11 20 11h135q10 0 12 -4t2 -6q0 -5 -4 -10l-107 -134q-6 -10 -19 -10
h-111q-10 0 -12 4t-2 6q0 4 3 9z" />
    <glyph glyph-name="oslashacute" unicode="&#x1ff;" 
d="M35 241q0 110 74.5 182.5t190.5 72.5q46 0 85 -12l34 60q5 9 13 9q5 0 10 -4l55 -31q8 -6 8 -13q0 -4 -3 -9l-31 -55q94 -73 94 -200q0 -110 -74.5 -182t-190.5 -72q-46 0 -85 12l-34 -60q-5 -9 -12 -9q-5 0 -11 4l-54 31q-8 6 -8 13q0 4 2 9l32 54q-95 73 -95 200z
M205 570l83 134q8 11 20 11h135q10 0 12 -4t2 -6q0 -5 -4 -10l-107 -134q-6 -10 -19 -10h-111q-10 0 -12 4t-2 6q0 4 3 9zM208 153l122 213q-14 3 -30 3q-55 0 -88.5 -36t-33.5 -92q0 -53 30 -88zM270 117q15 -3 30 -3q55 0 88 35.5t33 91.5q0 53 -29 88z" />
    <glyph glyph-name="uni0218" unicode="&#x218;" horiz-adv-x="634" 
d="M56 217h128q14 0 18 -15q18 -74 120 -74q56 0 84.5 20t28.5 56q0 62 -93 77l-99 16q-201 33 -201 201q0 99 70.5 157t200.5 58q126 0 196 -55t79 -158v-5q0 -12 -15 -12h-129q-14 0 -17 16q-10 73 -114 73q-108 0 -108 -73q0 -29 23 -46t83 -26l99 -16q187 -30 187 -201
q0 -107 -72 -165t-202 -58q-127 0 -199.5 55t-83.5 157v5q0 13 16 13zM238 -247l17 156q1 16 16 16h115q15 0 15 -12q0 -3 -1 -7l-43 -156q-3 -14 -18 -14h-86q-15 0 -15 14v3z" />
    <glyph glyph-name="uni0219" unicode="&#x219;" horiz-adv-x="512" 
d="M36 143q4 5 12 5h117q12 0 18 -14q14 -37 74 -37q73 0 73 45q0 20 -16 30t-57 15l-66 7q-78 9 -118 47t-40 97q0 72 57 115t165 43q197 0 219 -148v-5q0 -12 -15 -12h-115q-14 0 -18 15q-12 39 -72 39q-71 0 -71 -43q0 -16 16.5 -25.5t58.5 -14.5l66 -8q156 -17 156 -145
q0 -76 -58.5 -119t-163.5 -43q-100 0 -157 38t-68 106q-1 2 -1 4q0 4 4 8zM168 -247l17 156q1 16 16 16h115q15 0 15 -12q0 -3 -1 -7l-43 -156q-3 -14 -18 -14h-86q-15 0 -15 14v3z" />
    <glyph glyph-name="uni021A" unicode="&#x21a;" horiz-adv-x="593" 
d="M36 700h522q16 0 16 -16v-118q0 -16 -16 -16h-181v-534q0 -16 -16 -16h-129q-16 0 -16 16v534h-180q-17 0 -17 16v118q0 16 17 16zM201 -247l17 156q1 16 16 16h115q15 0 15 -12q0 -3 -1 -7l-43 -156q-3 -14 -18 -14h-86q-15 0 -15 14v3z" />
    <glyph glyph-name="uni021B" unicode="&#x21b;" horiz-adv-x="449" 
d="M29 483h78v116q0 17 17 17h119q16 0 16 -17v-116h142q16 0 16 -17v-98q0 -17 -16 -17h-142v-144q0 -45 19 -63.5t64 -18.5q34 0 60 11q5 2 9 2q10 0 10 -14v-101q0 -13 -11 -18q-42 -18 -102 -18q-101 0 -151 48.5t-50 150.5v165h-78q-17 0 -17 17v98q0 17 17 17z
M175 -247l17 156q1 16 16 16h115q15 0 15 -12q0 -3 -1 -7l-43 -156q-3 -14 -18 -14h-86q-15 0 -15 14v3z" />
    <glyph glyph-name="uni0237" unicode="&#x237;" horiz-adv-x="267" 
d="M-60 -102q0 14 13 14h5t11 -0.5t12 -0.5q42 0 59.5 18t17.5 65v472q0 17 16 17h119q17 0 17 -17v-485q0 -109 -46.5 -159.5t-142.5 -50.5q-39 0 -67 7q-14 3 -14 17v103z" />
    <glyph glyph-name="circumflex" unicode="&#x2c6;" 
d="M110 570l110 135q9 10 20 10h121q11 0 20 -10l110 -135q5 -6 5 -10q0 -2 -2 -6t-13 -4h-107q-13 0 -20 10l-52 67h-3l-53 -67q-7 -10 -20 -10h-107q-10 0 -12 4t-2 6q0 4 5 10z" />
    <glyph glyph-name="caron" unicode="&#x2c7;" 
d="M106 709q3 6 13 6h107q13 0 20 -10l52 -68h4l52 68q7 10 20 10h107q11 0 13 -4t2 -6q0 -4 -5 -10l-110 -135q-9 -10 -20 -10h-121q-11 0 -20 10l-110 135q-5 6 -5 10q0 2 1 4z" />
    <glyph glyph-name="breve" unicode="&#x2d8;" 
d="M140 709h85q15 0 18 -16q6 -52 57 -52t57 52q3 16 18 16h85q16 0 16 -16q0 -67 -47 -108q-48 -41 -129 -41t-128.5 41t-47.5 108q0 16 16 16z" />
    <glyph glyph-name="dotaccent" unicode="&#x2d9;" 
d="M206 639q0 40 27 66t67 26t67 -26t27 -66q0 -39 -27 -65t-67 -26t-67 26t-27 65z" />
    <glyph glyph-name="ring" unicode="&#x2da;" 
d="M159 670q0 55 40.5 93t100.5 38t100.5 -38t40.5 -93t-40 -93q-41 -38 -101 -38t-100.5 38t-40.5 93zM250 670q0 -22 14 -36q13 -14 36 -14t36.5 14t13.5 36t-13.5 36t-36.5 14t-36.5 -14t-13.5 -36z" />
    <glyph glyph-name="ogonek" unicode="&#x2db;" 
d="M318 -220q-63 0 -99.5 28.5t-36.5 75.5q0 50 40.5 88.5t117.5 52.5l47 5v-17q0 -13 -12 -20q-45 -24 -62 -41.5t-17 -35.5q0 -29 47 -29q17 0 27 1q17 3 17 -14v-71q0 -15 -16 -18q-24 -5 -53 -5z" />
    <glyph glyph-name="tilde" unicode="&#x2dc;" 
d="M114 567q6 144 105 144q35 0 88 -32q32 -19 47 -19q22 0 26 33q1 16 17 16h72q16 0 16 -21v-5q-7 -135 -104 -135q-37 0 -88 31q-34 20 -47 20q-22 0 -26 -33q-2 -16 -17 -16h-72q-17 0 -17 17z" />
    <glyph glyph-name="hungarumlaut" unicode="&#x2dd;" 
d="M347 570l83 134q5 11 19 11h104q11 0 13 -3.5t2 -6.5q0 -4 -4 -10l-96 -134q-7 -10 -20 -10h-89q-10 0 -12.5 4t-2.5 6q0 4 3 9zM145 570l83 134q5 11 19 11h103q11 0 13 -3.5t2 -6.5q0 -4 -4 -10l-95 -134q-8 -10 -20 -10h-89q-10 0 -12.5 4t-2.5 6q0 4 3 9z" />
    <glyph glyph-name="gravecomb" unicode="&#x300;" horiz-adv-x="0" 
d="M-496 709q3 6 13 6h135q12 0 20 -11l83 -134q4 -7 4 -11q0 -8 -15 -8h-110q-14 0 -20 10l-106 134q-5 6 -5 10q0 2 1 4z" />
    <glyph glyph-name="acutecomb" unicode="&#x301;" horiz-adv-x="0" 
d="M-369 570l83 134q8 11 20 11h135q10 0 12 -4t2 -6q0 -5 -4 -10l-107 -134q-6 -10 -19 -10h-111q-10 0 -12 4t-2 6q0 4 3 9z" />
    <glyph glyph-name="uni0302" unicode="&#x302;" horiz-adv-x="0" 
d="M-490 570l110 135q9 10 20 10h121q11 0 20 -10l110 -135q5 -6 5 -10q0 -2 -2 -6t-13 -4h-107q-13 0 -20 10l-52 67h-3l-53 -67q-7 -10 -20 -10h-107q-10 0 -12 4t-2 6q0 4 5 10z" />
    <glyph glyph-name="tildecomb" unicode="&#x303;" horiz-adv-x="0" 
d="M-486 567q6 144 105 144q35 0 88 -32q32 -19 47 -19q22 0 26 33q1 16 17 16h72q16 0 16 -21v-5q-7 -135 -104 -135q-37 0 -88 31q-34 20 -47 20q-22 0 -26 -33q-2 -16 -17 -16h-72q-17 0 -17 17z" />
    <glyph glyph-name="uni0304" unicode="&#x304;" horiz-adv-x="0" 
d="M-442 677h284q17 0 17 -16v-82q0 -16 -17 -16h-284q-17 0 -17 16v82q0 16 17 16z" />
    <glyph glyph-name="uni0306" unicode="&#x306;" horiz-adv-x="0" 
d="M-460 709h85q15 0 18 -16q6 -52 57 -52t57 52q3 16 18 16h85q16 0 16 -16q0 -67 -48 -108q-47 -41 -128 -41t-128.5 41t-47.5 108q0 16 16 16z" />
    <glyph glyph-name="uni0307" unicode="&#x307;" horiz-adv-x="0" 
d="M-394 639q0 40 27 66t67 26t67 -26t27 -66q0 -39 -27 -65t-67 -26t-67 26t-27 65z" />
    <glyph glyph-name="uni0308" unicode="&#x308;" horiz-adv-x="0" 
d="M-474 695q24 24 60 24q37 0 60.5 -24.5t23.5 -61.5t-23.5 -61.5t-60.5 -24.5q-36 0 -59.5 24.5t-23.5 61.5t23 62zM-247 695q24 24 61 24q36 0 59.5 -24.5t23.5 -61.5t-23.5 -61.5t-59.5 -24.5q-37 0 -60.5 24.5t-23.5 61.5t23 62z" />
    <glyph glyph-name="uni030A" unicode="&#x30a;" horiz-adv-x="0" 
d="M-441 670q0 55 40.5 93t100.5 38t100.5 -38t40.5 -93t-41 -93q-40 -38 -100 -38t-100.5 38t-40.5 93zM-337 634q14 -14 37 -14t36.5 14t13.5 36t-13.5 36t-36.5 14t-36.5 -14t-13.5 -36t13 -36z" />
    <glyph glyph-name="uni030B" unicode="&#x30b;" horiz-adv-x="0" 
d="M-253 570l83 134q5 11 19 11h104q11 0 13 -3.5t2 -6.5q0 -4 -4 -10l-96 -134q-7 -10 -20 -10h-89q-10 0 -12.5 4t-2.5 6q0 4 3 9zM-455 570l83 134q5 11 19 11h103q11 0 13 -3.5t2 -6.5q0 -4 -4 -10l-95 -134q-8 -10 -20 -10h-89q-10 0 -12.5 4t-2.5 6q0 4 3 9z" />
    <glyph glyph-name="uni030C" unicode="&#x30c;" horiz-adv-x="0" 
d="M-494 709q3 6 13 6h107q13 0 20 -10l52 -68h4l52 68q7 10 20 10h107q11 0 13 -4t2 -6q0 -4 -5 -10l-110 -135q-9 -10 -20 -10h-121q-11 0 -20 10l-110 135q-5 6 -5 10q0 2 1 4z" />
    <glyph glyph-name="uni0312" unicode="&#x312;" horiz-adv-x="0" 
d="M-370 588l42 155q4 14 19 14h85q15 0 15 -12v-5l-16 -155q-1 -16 -17 -16h-114q-15 0 -15 12q0 3 1 7z" />
    <glyph glyph-name="uni0326" unicode="&#x326;" horiz-adv-x="0" 
d="M-392 -247l17 156q1 16 16 16h115q15 0 15 -12q0 -3 -1 -7l-43 -156q-3 -14 -18 -14h-86q-15 0 -15 14v3z" />
    <glyph glyph-name="uni0327" unicode="&#x327;" horiz-adv-x="0" 
d="M-414 -170l68 184q4 13 18 13h94q14 0 14 -11q0 -3 -1 -7l-52 -183q-3 -14 -17 -14h-112q-14 0 -14 9q0 4 2 9z" />
    <glyph glyph-name="uni0328" unicode="&#x328;" horiz-adv-x="0" 
d="M-378 -28q41 39 118 53l47 5v-17q0 -13 -12 -20q-45 -24 -62 -41.5t-17 -35.5q0 -29 47 -29q17 0 27 1h5q12 0 12 -14v-71q0 -15 -16 -18q-24 -5 -53 -5q-63 0 -99.5 28.5t-36.5 75.5q0 50 40 88z" />
    <glyph glyph-name="uni03BC" unicode="&#x3bc;" horiz-adv-x="633" 
d="M544 483q17 0 17 -17v-450q0 -16 -17 -16h-101q-16 0 -16 16v61q-16 -43 -48 -66.5t-75 -23.5q-48 0 -80 31v-218q0 -16 -16 -16h-120q-16 0 -16 16v666q0 17 16 17h120q16 0 16 -17v-248q0 -49 20.5 -72t63.5 -23q101 0 101 124v219q0 17 16 17h119z" />
    <glyph glyph-name="pi" unicode="&#x3c0;" horiz-adv-x="617" 
d="M574 138q16 0 16 -16v-106q0 -16 -16 -16h-54q-79 0 -116 37t-37 120v189h-143v-330q0 -16 -16 -16h-120q-16 0 -16 16v450q0 17 16 17h414q17 0 17 -17v-278q0 -27 11.5 -38.5t38.5 -11.5h5z" />
    <glyph glyph-name="uni1E20" unicode="&#x1e20;" horiz-adv-x="805" 
d="M149 609q104 104 263 104q122 0 213 -63.5t118 -166.5q1 -4 1 -7q0 -11 -15 -11h-142q-13 0 -19 13q-17 39 -58.5 61.5t-97.5 22.5q-92 0 -147 -57.5t-55 -154.5q0 -98 56 -155t152 -57q74 0 121.5 35.5t60.5 100.5h-170q-17 0 -17 16v92q0 17 17 17h314q17 0 17 -17v-50
q0 -154 -98 -249.5t-250 -95.5q-160 0 -264.5 104t-104.5 259q0 154 105 259zM253 796v82q0 16 17 16h284q17 0 17 -16v-82q0 -16 -17 -16h-284q-17 0 -17 16z" />
    <glyph glyph-name="uni1E21" unicode="&#x1e21;" horiz-adv-x="614" 
d="M35 245q0 109 64.5 180t162.5 71q102 0 143 -72h4v42q0 17 16 17h115q16 0 16 -17v-454q0 -113 -70 -177t-194 -64q-105 0 -171 47t-77 128v4q0 13 16 13h115q13 0 18 -14q17 -53 100 -53q118 0 118 116v61h-5q-42 -71 -144 -71q-98 0 -162.5 67.5t-64.5 175.5zM190 244
q0 -49 30 -81t80 -32t80.5 31.5t30.5 81.5t-30.5 82t-80.5 32t-80 -32t-30 -82zM149 661q0 16 17 16h284q17 0 17 -16v-82q0 -16 -17 -16h-284q-17 0 -17 16v82z" />
    <glyph glyph-name="uni1E30" unicode="&#x1e30;" horiz-adv-x="708" 
d="M72 684q0 16 16 16h129q17 0 17 -16v-305h60l185 310q5 11 20 11h152q10 0 12 -4t2 -6q0 -4 -3 -10l-201 -335q179 -79 213 -327v-3q0 -15 -16 -15h-145q-14 0 -17 15q-18 114 -71.5 161.5t-155.5 47.5h-35v-208q0 -16 -17 -16h-129q-16 0 -16 16v668zM285 787l83 134
q8 11 20 11h135q10 0 12 -4t2 -6q0 -5 -4 -10l-107 -134q-6 -10 -19 -10h-111q-10 0 -12 4t-2 6q0 4 3 9z" />
    <glyph glyph-name="uni1E31" unicode="&#x1e31;" horiz-adv-x="577" 
d="M74 700h119q17 0 17 -16v-381h49l111 169q8 11 20 11h141q10 0 12 -4t2 -7q0 -4 -3 -9l-134 -199q120 -71 145 -246v-5q0 -13 -15 -13h-128q-15 0 -18 15q-15 82 -53 116t-111 34h-18v-149q0 -16 -17 -16h-119q-16 0 -16 16v668q0 16 16 16zM38 787l83 134q8 11 20 11
h135q10 0 12 -4t2 -6q0 -5 -4 -10l-107 -134q-6 -10 -19 -10h-111q-10 0 -12 4t-2 6q0 4 3 9z" />
    <glyph glyph-name="uni1E3E" unicode="&#x1e3e;" horiz-adv-x="915" 
d="M72 16v668q0 16 16 16h149q15 0 20 -12l199 -356h3l198 356q5 12 20 12h149q17 0 17 -16v-668q0 -16 -17 -16h-128q-16 0 -16 16v417h-3l-155 -271q-5 -12 -19 -12h-95q-14 0 -19 12l-156 271h-2v-417q0 -16 -16 -16h-129q-16 0 -16 16zM362 787l83 134q8 11 20 11h135
q10 0 12 -4t2 -6q0 -5 -4 -10l-107 -134q-6 -10 -19 -10h-111q-10 0 -12 4t-2 6q0 4 3 9z" />
    <glyph glyph-name="uni1E3F" unicode="&#x1e3f;" horiz-adv-x="880" 
d="M58 16v450q0 17 16 17h114q17 0 17 -17v-48h3q39 78 138 78q101 0 144 -85h4q22 39 64.5 62t95.5 23q81 0 127 -53t46 -148v-279q0 -16 -16 -16h-119q-17 0 -17 16v240q0 100 -74 100q-38 0 -60 -25.5t-22 -75.5v-239q0 -16 -17 -16h-119q-16 0 -16 16v240q0 100 -75 100
q-38 0 -60 -25.5t-22 -75.5v-239q0 -16 -17 -16h-119q-16 0 -16 16zM363 570l83 134q8 11 20 11h135q10 0 12 -4t2 -6q0 -5 -4 -10l-107 -134q-6 -10 -19 -10h-111q-10 0 -12 4t-2 6q0 4 3 9z" />
    <glyph glyph-name="uni1E40" unicode="&#x1e40;" horiz-adv-x="915" 
d="M72 16v668q0 16 16 16h149q15 0 20 -12l199 -356h3l198 356q5 12 20 12h149q17 0 17 -16v-668q0 -16 -17 -16h-128q-16 0 -16 16v417h-3l-155 -271q-5 -12 -19 -12h-95q-14 0 -19 12l-156 271h-2v-417q0 -16 -16 -16h-129q-16 0 -16 16zM390 922q27 26 67 26t67 -26
t27 -66q0 -39 -27 -65t-67 -26t-67 26t-27 65q0 40 27 66z" />
    <glyph glyph-name="uni1E41" unicode="&#x1e41;" horiz-adv-x="880" 
d="M74 483h114q17 0 17 -17v-48h3q39 78 138 78q101 0 144 -85h4q22 39 64.5 62t95.5 23q81 0 127 -53t46 -148v-279q0 -16 -16 -16h-119q-17 0 -17 16v240q0 100 -74 100q-38 0 -60 -25.5t-22 -75.5v-239q0 -16 -17 -16h-119q-16 0 -16 16v240q0 100 -75 100
q-38 0 -60 -25.5t-22 -75.5v-239q0 -16 -17 -16h-119q-16 0 -16 16v450q0 17 16 17zM390 705q27 26 67 26t67 -26t27 -66q0 -39 -27 -65t-67 -26t-67 26t-27 65q0 40 27 66z" />
    <glyph glyph-name="uni1E44" unicode="&#x1e44;" horiz-adv-x="768" 
d="M72 16v668q0 16 16 16h125q14 0 21 -10l298 -420h2v414q0 16 16 16h129q17 0 17 -16v-668q0 -16 -17 -16h-126q-13 0 -20 10l-298 419h-1v-413q0 -16 -17 -16h-129q-16 0 -16 16zM290 856q0 40 27 66t67 26t67 -26t27 -66q0 -39 -27 -65t-67 -26t-67 26t-27 65z" />
    <glyph glyph-name="uni1E45" unicode="&#x1e45;" horiz-adv-x="593" 
d="M58 466q0 17 16 17h116q17 0 17 -17v-47h2q40 77 148 77q86 0 134.5 -53.5t48.5 -148.5v-278q0 -16 -16 -16h-120q-16 0 -16 16v239q0 101 -85 101q-44 0 -68.5 -26t-24.5 -76v-238q0 -16 -17 -16h-119q-16 0 -16 16v450zM204 639q0 40 27 66t67 26t67 -26t27 -66
q0 -39 -27 -65t-67 -26t-67 26t-27 65z" />
    <glyph glyph-name="Wgrave" unicode="&#x1e80;" horiz-adv-x="1057" 
d="M32 700h138q15 0 18 -14l129 -437h3l131 437q3 14 19 14h118q15 0 18 -14l132 -437h3l129 437q3 14 18 14h137q15 0 15 -12q0 -3 -1 -7l-207 -667q-3 -14 -18 -14h-132q-15 0 -18 14l-133 429h-4l-132 -429q-5 -14 -19 -14h-132q-15 0 -18 14l-207 667q-1 5 -1 8
q0 11 14 11zM365 926q3 6 13 6h135q12 0 20 -11l83 -134q4 -7 4 -11q0 -8 -15 -8h-110q-14 0 -20 10l-106 134q-5 6 -5 10q0 2 1 4z" />
    <glyph glyph-name="wgrave" unicode="&#x1e81;" horiz-adv-x="867" 
d="M31 483h126q14 0 19 -14l87 -290h4l93 290q3 14 18 14h110q16 0 19 -14l94 -290h2l88 290q5 14 19 14h126q15 0 15 -10q0 -4 -2 -9l-155 -451q-4 -13 -19 -13h-132q-14 0 -18 13l-90 269h-3l-89 -269q-6 -13 -19 -13h-133q-14 0 -18 13l-156 451q-1 4 -1 7q0 12 15 12z
M270 709q3 6 13 6h135q12 0 20 -11l83 -134q4 -7 4 -11q0 -8 -15 -8h-110q-14 0 -20 10l-106 134q-5 6 -5 10q0 2 1 4z" />
    <glyph glyph-name="Wacute" unicode="&#x1e82;" horiz-adv-x="1057" 
d="M32 700h138q15 0 18 -14l129 -437h3l131 437q3 14 19 14h118q15 0 18 -14l132 -437h3l129 437q3 14 18 14h137q15 0 15 -12q0 -3 -1 -7l-207 -667q-3 -14 -18 -14h-132q-15 0 -18 14l-133 429h-4l-132 -429q-5 -14 -19 -14h-132q-15 0 -18 14l-207 667q-1 5 -1 8
q0 11 14 11zM434 787l83 134q8 11 20 11h135q10 0 12 -4t2 -6q0 -5 -4 -10l-107 -134q-6 -10 -19 -10h-111q-10 0 -12 4t-2 6q0 4 3 9z" />
    <glyph glyph-name="wacute" unicode="&#x1e83;" horiz-adv-x="867" 
d="M31 483h126q14 0 19 -14l87 -290h4l93 290q3 14 18 14h110q16 0 19 -14l94 -290h2l88 290q5 14 19 14h126q15 0 15 -10q0 -4 -2 -9l-155 -451q-4 -13 -19 -13h-132q-14 0 -18 13l-90 269h-3l-89 -269q-6 -13 -19 -13h-133q-14 0 -18 13l-156 451q-1 4 -1 7q0 12 15 12z
M339 570l83 134q8 11 20 11h135q10 0 12 -4t2 -6q0 -5 -4 -10l-107 -134q-6 -10 -19 -10h-111q-10 0 -12 4t-2 6q0 4 3 9z" />
    <glyph glyph-name="Wdieresis" unicode="&#x1e84;" horiz-adv-x="1057" 
d="M32 700h138q15 0 18 -14l129 -437h3l131 437q3 14 19 14h118q15 0 18 -14l132 -437h3l129 437q3 14 18 14h137q15 0 15 -12q0 -3 -1 -7l-207 -667q-3 -14 -18 -14h-132q-15 0 -18 14l-133 429h-4l-132 -429q-5 -14 -19 -14h-132q-15 0 -18 14l-207 667q-1 5 -1 8
q0 11 14 11zM583 912q23 24 60 24q36 0 59.5 -24.5t23.5 -61.5t-23.5 -61.5t-59.5 -24.5q-37 0 -60.5 24.5t-23.5 61.5t24 62zM356 912q23 24 59 24q37 0 60.5 -24.5t23.5 -61.5t-23.5 -61.5t-60.5 -24.5q-36 0 -59.5 24.5t-23.5 61.5t24 62z" />
    <glyph glyph-name="wdieresis" unicode="&#x1e85;" horiz-adv-x="867" 
d="M31 483h126q14 0 19 -14l87 -290h4l93 290q3 14 18 14h110q16 0 19 -14l94 -290h2l88 290q5 14 19 14h126q15 0 15 -10q0 -4 -2 -9l-155 -451q-4 -13 -19 -13h-132q-14 0 -18 13l-90 269h-3l-89 -269q-6 -13 -19 -13h-133q-14 0 -18 13l-156 451q-1 4 -1 7q0 12 15 12z
M237 633q0 37 23.5 61.5t59.5 24.5q37 0 60.5 -24.5t23.5 -61.5t-23.5 -61.5t-60.5 -24.5q-36 0 -59.5 24.5t-23.5 61.5zM464 633q0 37 23.5 61.5t60.5 24.5q36 0 59.5 -24.5t23.5 -61.5t-23.5 -61.5t-59.5 -24.5q-37 0 -60.5 24.5t-23.5 61.5z" />
    <glyph glyph-name="uni1E90" unicode="&#x1e90;" horiz-adv-x="616" 
d="M48 128l313 423h-300q-16 0 -16 17v116q0 16 16 16h495q16 0 16 -16v-92q0 -10 -6 -20l-314 -423h307q16 0 16 -17v-116q0 -16 -16 -16h-501q-17 0 -17 16v92q0 10 7 20zM116 787l110 135q9 10 20 10h121q11 0 20 -10l110 -135q5 -6 5 -10q0 -2 -2 -6t-13 -4h-107
q-13 0 -20 10l-52 67h-3l-53 -67q-7 -10 -20 -10h-107q-10 0 -12 4t-2 6q0 4 5 10z" />
    <glyph glyph-name="uni1E91" unicode="&#x1e91;" horiz-adv-x="499" 
d="M35 93q0 10 8 21l215 237h-200q-16 0 -16 16v99q0 17 16 17h388q16 0 16 -17v-76q0 -13 -7 -21l-215 -237h207q16 0 16 -17v-99q0 -16 -16 -16h-395q-17 0 -17 16v77zM59 570l110 135q9 10 20 10h121q11 0 20 -10l110 -135q5 -6 5 -10q0 -2 -2 -6t-13 -4h-107
q-13 0 -20 10l-52 67h-3l-53 -67q-7 -10 -20 -10h-107q-10 0 -12 4t-2 6q0 4 5 10z" />
    <glyph glyph-name="Germandbls" unicode="&#x1e9e;" horiz-adv-x="748" 
d="M533 383q185 -29 185 -190q0 -98 -66 -151t-194 -53q-54 0 -102 9q-15 3 -15 18v108q0 18 19 15q40 -9 88 -9q106 0 106 70q0 36 -32 53t-116 17h-29q-16 0 -16 16v91q0 12 7 20l118 152q-43 20 -102 20q-154 0 -154 -139v-414q0 -16 -17 -16h-129q-16 0 -16 16v426
q0 132 78 201.5t229 69.5q104 0 183 -32t122 -88q8 -12 -1 -23z" />
    <glyph glyph-name="Ygrave" unicode="&#x1ef2;" horiz-adv-x="682" 
d="M12 695q3 5 13 5h147q13 0 20 -12l148 -264h2l149 264q5 12 19 12h147q10 0 12 -4t2 -6q0 -4 -3 -10l-245 -414v-250q0 -16 -16 -16h-132q-16 0 -16 16v250l-245 414q-3 6 -3 10q0 3 1 5zM178 926q3 6 13 6h135q12 0 20 -11l83 -134q4 -7 4 -11q0 -8 -15 -8h-110
q-14 0 -20 10l-106 134q-5 6 -5 10q0 2 1 4z" />
    <glyph glyph-name="ygrave" unicode="&#x1ef3;" horiz-adv-x="595" 
d="M68 -42h113q13 0 18 -15q17 -47 90 -47q103 0 103 108v75h-4q-40 -73 -149 -73q-86 0 -134 52t-48 147v261q0 17 17 17h119q16 0 16 -17v-224q0 -101 84 -101q43 0 68 26.5t25 75.5v223q0 17 16 17h119q17 0 17 -17v-462q0 -109 -66.5 -171t-182.5 -62
q-104 0 -165.5 45.5t-71.5 124.5v4q0 13 16 13zM131 709q3 6 13 6h135q12 0 20 -11l83 -134q4 -7 4 -11q0 -8 -15 -8h-110q-14 0 -20 10l-106 134q-5 6 -5 10q0 2 1 4z" />
    <glyph glyph-name="uni2000" unicode="&#x2000;" horiz-adv-x="500" 
 />
    <glyph glyph-name="uni2001" unicode="&#x2001;" horiz-adv-x="1000" 
 />
    <glyph glyph-name="uni2002" unicode="&#x2002;" horiz-adv-x="500" 
 />
    <glyph glyph-name="uni2003" unicode="&#x2003;" horiz-adv-x="1000" 
 />
    <glyph glyph-name="uni2009" unicode="&#x2009;" horiz-adv-x="214" 
 />
    <glyph glyph-name="uni200A" unicode="&#x200a;" horiz-adv-x="71" 
 />
    <glyph glyph-name="uni200B" unicode="&#x200b;" horiz-adv-x="0" 
 />
    <glyph glyph-name="endash" unicode="&#x2013;" horiz-adv-x="499" 
d="M55 205q-17 0 -17 17v102q0 16 17 16h390q17 0 17 -16v-102q0 -17 -17 -17h-390z" />
    <glyph glyph-name="emdash" unicode="&#x2014;" horiz-adv-x="999" 
d="M55 205q-17 0 -17 17v102q0 16 17 16h890q17 0 17 -16v-102q0 -17 -17 -17h-890z" />
    <glyph glyph-name="quoteleft" unicode="&#x2018;" horiz-adv-x="265" 
d="M49 441q-19 0 -14 19l67 239q3 14 18 14h96q18 0 15 -18l-45 -239q-3 -15 -18 -15h-119z" />
    <glyph glyph-name="quoteright" unicode="&#x2019;" horiz-adv-x="265" 
d="M216 713q19 0 14 -19l-66 -239q-5 -14 -19 -14h-96q-18 0 -15 18l45 239q3 15 18 15h119z" />
    <glyph glyph-name="quotesinglbase" unicode="&#x201a;" horiz-adv-x="272" 
d="M46 -144q-20 0 -15 17l44 240q3 15 18 15h119q20 0 15 -18l-68 -240q-3 -14 -18 -14h-95z" />
    <glyph glyph-name="quotedblleft" unicode="&#x201c;" horiz-adv-x="481" 
d="M49 441q-19 0 -14 19l67 239q3 14 18 14h96q18 0 15 -18l-45 -239q-3 -15 -18 -15h-119zM265 441q-19 0 -14 19l67 239q3 14 19 14h95q20 0 15 -18l-44 -239q-3 -15 -19 -15h-119z" />
    <glyph glyph-name="quotedblright" unicode="&#x201d;" horiz-adv-x="481" 
d="M216 713q19 0 14 -19l-66 -239q-5 -14 -19 -14h-96q-18 0 -15 18l45 239q3 15 18 15h119zM433 713q18 0 13 -19l-66 -239q-3 -14 -19 -14h-96q-18 0 -15 18l45 239q3 15 18 15h120z" />
    <glyph glyph-name="quotedblbase" unicode="&#x201e;" horiz-adv-x="485" 
d="M46 -144q-20 0 -15 17l44 240q3 15 18 15h119q20 0 15 -18l-68 -240q-3 -14 -18 -14h-95zM259 -144q-20 0 -15 17l44 240q3 15 18 15h119q19 0 14 -18l-66 -240q-4 -14 -19 -14h-95z" />
    <glyph glyph-name="dagger" unicode="&#x2020;" horiz-adv-x="526" 
d="M478 502q17 0 17 -17v-102q0 -16 -17 -16h-138v-481q0 -16 -16 -16h-122q-16 0 -16 16v481h-138q-17 0 -17 16v102q0 17 17 17h138v216q0 16 16 16h122q16 0 16 -16v-216h138z" />
    <glyph glyph-name="daggerdbl" unicode="&#x2021;" horiz-adv-x="566" 
d="M498 367h-138v-152h138q17 0 17 -16v-102q0 -16 -17 -16h-138v-195q0 -16 -16 -16h-122q-16 0 -16 16v195h-138q-17 0 -17 16v102q0 16 17 16h138v152h-138q-17 0 -17 16v102q0 17 17 17h138v216q0 16 16 16h122q16 0 16 -16v-216h138q17 0 17 -17v-102q0 -16 -17 -16z
" />
    <glyph glyph-name="bullet" unicode="&#x2022;" horiz-adv-x="535" 
d="M267 189q-72 0 -120.5 48.5t-48.5 119.5t48.5 120t120.5 49t120.5 -49t48.5 -120t-48.5 -119.5t-120.5 -48.5z" />
    <glyph glyph-name="ellipsis" unicode="&#x2026;" horiz-adv-x="829" 
d="M137 -10q-43 0 -69 26t-26 68q0 43 26 69.5t69 26.5t69.5 -26.5t26.5 -69.5q0 -42 -26.5 -68t-69.5 -26zM414 -10q-42 0 -68.5 26t-26.5 68q0 43 26.5 69.5t68.5 26.5q43 0 69.5 -26.5t26.5 -69.5q0 -42 -26.5 -68t-69.5 -26zM692 -10q-43 0 -69 26t-26 68q0 43 26 69.5
t69 26.5t69.5 -26.5t26.5 -69.5q0 -42 -26.5 -68t-69.5 -26z" />
    <glyph glyph-name="perthousand" unicode="&#x2030;" horiz-adv-x="1325" 
d="M221 340q-81 0 -135.5 53t-54.5 134q0 80 54.5 133t135.5 53t135.5 -53t54.5 -133q0 -81 -54.5 -134t-135.5 -53zM193 0q-21 0 -11 20l415 669q5 11 19 11h97q22 0 10 -20l-414 -669q-5 -11 -19 -11h-97zM221 454q31 0 50.5 20t19.5 53t-19.5 53t-50.5 20t-50.5 -20
t-19.5 -53t19.5 -53t50.5 -20zM685 -13q-81 0 -135.5 53t-54.5 133q0 81 54.5 134t135.5 53q82 0 136 -53t54 -134q0 -80 -54 -133t-136 -53zM1103 -13q-81 0 -135 53t-54 133q0 81 54 134t135 53q82 0 136 -53t54 -134q0 -80 -54 -133t-136 -53zM685 100q31 0 50.5 20
t19.5 53t-19.5 53t-50.5 20t-50.5 -20t-19.5 -53t19.5 -53t50.5 -20zM1103 100q31 0 50.5 20t19.5 53t-19.5 53t-50.5 20t-50 -20t-19 -53t19 -53t50 -20z" />
    <glyph glyph-name="guilsinglleft" unicode="&#x2039;" horiz-adv-x="352" 
d="M196 239l106 -164q5 -8 2.5 -14t-12.5 -6h-129q-13 0 -19 11l-105 162q-7 12 0 22l105 162q6 11 19 11h129q10 0 12.5 -5.5t-2.5 -13.5z" />
    <glyph glyph-name="guilsinglright" unicode="&#x203a;" horiz-adv-x="352" 
d="M313 250q7 -10 0 -22l-105 -162q-6 -11 -19 -11h-129q-10 0 -12.5 6t2.5 14l106 164l-106 165q-5 8 -2.5 13.5t12.5 5.5h129q13 0 19 -11z" />
    <glyph glyph-name="fraction" unicode="&#x2044;" horiz-adv-x="549" 
d="M23 0q-10 0 -13 5.5t2 14.5l401 669q7 11 20 11h93q10 0 13 -5.5t-2 -14.5l-401 -669q-6 -11 -19 -11h-94z" />
    <glyph glyph-name="uni2070" unicode="&#x2070;" horiz-adv-x="380" 
d="M190 323q-76 0 -119.5 52t-43.5 143t43.5 143t119.5 52q75 0 119 -52t44 -143t-44 -143t-119 -52zM190 419q56 0 56 99t-56 99q-57 0 -57 -99t57 -99z" />
    <glyph glyph-name="uni2074" unicode="&#x2074;" horiz-adv-x="349" 
d="M314 483q17 0 17 -16v-56q0 -17 -17 -17h-19v-46q0 -16 -16 -16h-64q-17 0 -17 16v46h-163q-16 0 -16 17v56q0 10 7 20l149 208q7 10 20 10h84q16 0 16 -17v-205h19zM124 483h74v102z" />
    <glyph glyph-name="uni2075" unicode="&#x2075;" horiz-adv-x="334" 
d="M183 581q58 0 95.5 -35t37.5 -90q0 -59 -41 -96t-108 -37q-62 0 -102 34q-35 30 -41 72q-3 17 16 17h70q10 0 20 -12q11 -17 38 -17q21 0 33 11.5t12 30.5q0 18 -11.5 29t-31.5 11t-34 -12q-11 -9 -20 -9h-74q-17 0 -15 17l24 194q1 16 17 16h209q16 0 16 -17v-57
q0 -17 -16 -17h-144l-6 -44q23 11 56 11z" />
    <glyph glyph-name="uni2076" unicode="&#x2076;" horiz-adv-x="349" 
d="M199 579q57 0 94 -36t37 -91q0 -57 -40.5 -93t-106.5 -36q-63 0 -104 36q-52 46 -52 152q0 99 41 150.5t120 51.5q111 0 134 -98q3 -17 -15 -17h-70q-9 0 -19 12q-9 15 -32 15q-46 0 -54 -63q29 17 67 17zM182 410q20 0 32 11.5t12 31.5q0 19 -12.5 31t-33.5 12
q-20 0 -31.5 -11.5t-11.5 -31.5t12 -31.5t33 -11.5z" />
    <glyph glyph-name="uni2077" unicode="&#x2077;" horiz-adv-x="294" 
d="M261 705q17 0 17 -17v-57q0 -11 -5 -20l-121 -267q-4 -12 -18 -12h-76q-20 0 -12 19l118 258h-131q-16 0 -16 17v62q0 17 16 17h228z" />
    <glyph glyph-name="uni2078" unicode="&#x2078;" horiz-adv-x="348" 
d="M174 323q-71 0 -110.5 31t-39.5 82q0 64 59 91q-49 27 -49 81q0 46 37 75.5t103 29.5t103 -29.5t37 -75.5q0 -53 -49 -81q59 -28 59 -91q0 -51 -39.5 -82t-110.5 -31zM174 564q39 0 39 31t-39 31t-39 -31t39 -31zM174 412q45 0 45 33t-45 33t-45 -33t45 -33z" />
    <glyph glyph-name="uni2079" unicode="&#x2079;" horiz-adv-x="351" 
d="M273 676q52 -46 52 -151q0 -98 -41.5 -150t-119.5 -52q-57 0 -90 26q-35 25 -45 71q-2 8 2.5 13t12.5 5h71q9 0 19 -13q8 -13 32 -13q47 0 55 63q-30 -18 -68 -18q-56 0 -93 35.5t-37 90.5q0 57 40 93.5t106 36.5q64 0 104 -37zM172 540q20 0 32 11.5t12 31.5
q0 19 -12.5 30.5t-33.5 11.5q-20 0 -32 -11.5t-12 -30.5t12.5 -31t33.5 -12z" />
    <glyph glyph-name="Euro" unicode="&#x20ac;" horiz-adv-x="647" 
d="M595 208q18 0 15 -20q-18 -96 -81 -148.5t-154 -52.5q-105 0 -174.5 67t-92.5 186h-57q-17 0 -17 17v49q0 17 17 17h48q-1 9 -1 27t1 27h-48q-17 0 -17 17v49q0 17 17 17h57q23 119 92.5 186t174.5 67q92 0 155 -53t80 -151q3 -17 -15 -17h-118q-14 0 -17 15
q-8 33 -31 51t-55 18q-82 0 -109 -116h156q16 0 16 -17v-49q0 -17 -16 -17h-166q-1 -9 -1 -27t1 -27h166q16 0 16 -17v-49q0 -17 -16 -17h-156q27 -116 109 -116q32 0 55 18t31 51q3 15 17 15h118z" />
    <glyph glyph-name="uni2116" unicode="&#x2116;" horiz-adv-x="1225" 
d="M72 16v668q0 16 16 16h125q14 0 21 -10l298 -420h2v414q0 16 16 16h129q17 0 17 -16v-668q0 -16 -17 -16h-126q-13 0 -20 10l-298 419h-1v-413q0 -16 -17 -16h-129q-16 0 -16 16zM842 660q54 53 137 53t137.5 -53.5t54.5 -134.5q0 -82 -54 -135q-55 -54 -138 -54
t-137.5 53.5t-54.5 135.5q0 81 55 135zM807 156v101q0 17 16 17h315q16 0 16 -17v-101q0 -17 -16 -17h-315q-16 0 -16 17zM928 471q19 -21 51 -21q31 0 51 21t20 54t-20 53t-51 20q-32 0 -51.5 -20t-19.5 -53q0 -34 20 -54z" />
    <glyph glyph-name="trademark" unicode="&#x2122;" horiz-adv-x="809" 
d="M292 700q16 0 16 -16v-68q0 -17 -16 -17h-65v-201q0 -16 -16 -16h-72q-16 0 -16 16v201h-65q-17 0 -17 17v68q0 16 17 16h234zM736 700q17 0 17 -16v-286q0 -16 -17 -16h-67q-17 0 -17 16v154h-3l-52 -91q-8 -11 -19 -11h-46q-13 0 -19 11l-52 91h-3v-154q0 -16 -16 -16
h-69q-16 0 -16 16v286q0 16 16 16h91q13 0 19 -12l70 -120h3l71 120q7 12 20 12h89z" />
    <glyph glyph-name="uni2126" unicode="&#x2126;" horiz-adv-x="818" 
d="M85 0q-17 0 -17 16v104q0 16 17 16h111v3q-62 31 -95 98.5t-33 148.5q0 143 98 235t243 92t242.5 -92.5t97.5 -235.5q0 -80 -33 -147.5t-94 -98.5v-3h111q16 0 16 -16v-104q0 -16 -16 -16h-266q-16 0 -16 16v120q0 14 11 20q133 75 133 216q0 86 -52 141.5t-134 55.5
t-134 -55.5t-52 -141.5q0 -141 133 -216q11 -6 11 -20v-120q0 -16 -16 -16h-266z" />
    <glyph glyph-name="estimated" unicode="&#x212e;" horiz-adv-x="782" 
d="M391 0q-146 0 -246 97q-101 98 -101 253q0 76 27 142.5t74 112.5q101 95 246 95t245 -95q48 -46 75 -112.5t27 -142.5v-12h-584v-151q0 -66 45 -99q83 -62 192 -62q84 0 154 36.5t113 102.5l21 -16q-47 -71 -123 -110t-165 -39zM154 362h479v146q0 67 -43 101
q-86 65 -199 65q-109 0 -192 -62q-45 -33 -45 -100v-150z" />
    <glyph glyph-name="arrowleft" unicode="&#x2190;" horiz-adv-x="700" 
d="M645 426q16 0 16 -16v-120q0 -16 -16 -16h-382l96 -97q12 -11 0 -23l-66 -67q-12 -11 -23 0l-239 251q-11 12 0 24l239 251q11 11 23 0l66 -67q12 -12 0 -23l-96 -97h382z" />
    <glyph glyph-name="arrowup" unicode="&#x2191;" horiz-adv-x="700" 
d="M613 425q11 -11 0 -23l-67 -66q-11 -13 -23 0l-97 96v-382q0 -16 -16 -16h-120q-16 0 -16 16v382l-97 -96q-11 -13 -23 0l-67 66q-11 12 0 23l251 239q12 10 24 0z" />
    <glyph glyph-name="arrowright" unicode="&#x2192;" horiz-adv-x="700" 
d="M669 362q11 -12 0 -24l-239 -251q-11 -11 -23 0l-66 67q-12 12 0 23l96 97h-382q-16 0 -16 16v120q0 16 16 16h382l-96 97q-12 11 0 23l66 67q12 11 23 0z" />
    <glyph glyph-name="arrowdown" unicode="&#x2193;" horiz-adv-x="700" 
d="M613 299q11 -11 0 -23l-251 -238q-12 -10 -24 0l-251 238q-11 12 0 23l67 66q12 13 23 0l97 -96v382q0 17 16 17h120q16 0 16 -17v-382l97 96q12 13 23 0z" />
    <glyph glyph-name="uni2196" unicode="&#x2196;" horiz-adv-x="700" 
d="M613 190q11 -12 0 -23l-84 -85q-11 -12 -23 0l-271 271v-137q0 -16 -17 -16l-93 -1q-18 0 -16 17l8 346q2 15 17 17l346 8q7 1 11.5 -3.5t4.5 -12.5v-94q0 -17 -17 -17h-136z" />
    <glyph glyph-name="uni2197" unicode="&#x2197;" horiz-adv-x="700" 
d="M591 216q2 -16 -16 -16h-93q-17 0 -17 16v137l-271 -270q-12 -13 -23 0l-84 84q-11 11 0 23l271 271h-137q-17 -2 -17 16v94q0 8 4 12.5t12 3.5l346 -8q15 -2 17 -17z" />
    <glyph glyph-name="uni2198" unicode="&#x2198;" horiz-adv-x="700" 
d="M575 501q18 0 16 -17l-8 -346q-2 -15 -17 -17l-346 -8q-7 -1 -11.5 3.5t-4.5 12.5v94q0 17 17 17h136l-270 270q-11 12 0 23l84 85q11 12 23 0l271 -271v137q0 16 17 16z" />
    <glyph glyph-name="uni2199" unicode="&#x2199;" horiz-adv-x="700" 
d="M613 533q11 -11 0 -23l-271 -271h137q17 2 17 -16v-94q0 -8 -4.5 -12.5t-11.5 -3.5l-346 8q-15 2 -17 17l-8 346q-2 16 16 16h93q17 0 17 -16v-137l271 270q12 13 23 0z" />
    <glyph glyph-name="partialdiff" unicode="&#x2202;" horiz-adv-x="658" 
d="M292 713q311 0 311 -377q0 -197 -91 -281q-71 -68 -191 -68q-122 0 -194.5 66.5t-72.5 173.5q0 104 67.5 170t173.5 66q93 0 147 -57h3q-8 93 -46.5 131.5t-115.5 38.5q-50 0 -114 -18q-19 -5 -19 14v102q0 14 13 18q57 21 129 21zM323 121q50 0 80 28.5t30 77.5t-30 78
t-80 29q-51 0 -81 -29t-30 -78t30 -77.5t81 -28.5z" />
    <glyph glyph-name="uni2206" unicode="&#x2206;" horiz-adv-x="714" 
d="M79 0q-13 0 -20 11l-31 49q-6 11 -1 22l266 606q6 12 19 12h90q13 0 19 -12l266 -606q5 -11 -1 -22l-31 -49q-7 -11 -20 -11h-556zM213 142h288l-142 333h-3z" />
    <glyph glyph-name="product" unicode="&#x220f;" horiz-adv-x="698" 
d="M589 734q17 0 17 -16v-832q0 -16 -17 -16h-125q-16 0 -16 16v706h-198v-706q0 -16 -16 -16h-126q-16 0 -16 16v832q0 16 16 16h481z" />
    <glyph glyph-name="summation" unicode="&#x2211;" horiz-adv-x="555" 
d="M522 614q0 -16 -16 -16h-270l204 -283q7 -10 0 -22l-203 -282h269q16 0 16 -17v-108q0 -16 -16 -16h-442q-16 0 -16 16v109q0 11 6 20l209 289l-209 289q-6 11 -6 20v109q0 16 16 16h442q16 0 16 -16v-108z" />
    <glyph glyph-name="minus" unicode="&#x2212;" 
d="M89 250q-16 0 -16 17v100q0 17 16 17h422q16 0 16 -17v-100q0 -17 -16 -17h-422z" />
    <glyph glyph-name="radical" unicode="&#x221a;" horiz-adv-x="665" 
d="M631 734q9 0 13 -5t1 -13l-237 -832q-4 -14 -19 -14h-137q-13 0 -19 13l-113 321h-80q-16 0 -16 17v113q0 16 16 16h174q14 0 19 -13l78 -233h4l170 616q5 14 18 14h128z" />
    <glyph glyph-name="infinity" unicode="&#x221e;" horiz-adv-x="763" 
d="M540 526q86 0 137.5 -54.5t51.5 -139.5t-51.5 -139t-137.5 -54q-98 0 -158 81q-62 -81 -159 -81q-86 0 -137.5 54t-51.5 139q0 84 51.5 139t137.5 55q96 0 159 -81q61 81 158 81zM225 252q29 0 49.5 20.5t41.5 59.5q-21 39 -41.5 59t-49.5 20q-30 0 -50 -21.5t-20 -57.5
t20 -58t50 -22zM539 252q30 0 49.5 22t19.5 58t-19.5 57.5t-49.5 21.5q-29 0 -49.5 -20t-41.5 -59q21 -39 41.5 -59.5t49.5 -20.5z" />
    <glyph glyph-name="integral" unicode="&#x222b;" horiz-adv-x="429" 
d="M46 -130q-16 0 -16 16v103q0 16 16 16h34q55 0 55 57v518q0 84 37 119t129 35h82q16 0 16 -16v-103q0 -16 -16 -16h-34q-55 0 -55 -57v-518q0 -84 -37 -119t-128 -35h-83z" />
    <glyph glyph-name="approxequal" unicode="&#x2248;" 
d="M405 332q-37 0 -105 24t-105 24q-50 0 -103 -31q-8 -5 -13.5 -2t-5.5 13v96q0 13 10 20q51 35 114 35q35 0 104.5 -23.5t102.5 -23.5q55 0 104 30q19 11 19 -10v-96q0 -13 -10 -20q-55 -36 -112 -36zM405 117q-37 0 -105 24t-105 24q-50 0 -103 -31q-8 -6 -13.5 -3
t-5.5 13v98q0 12 10 19q53 36 114 36q35 0 104.5 -24t102.5 -24q55 0 104 30q19 11 19 -10v-96q0 -14 -10 -20q-55 -36 -112 -36z" />
    <glyph glyph-name="notequal" unicode="&#x2260;" 
d="M511 357h-141l-36 -86h177q16 0 16 -16v-94q0 -16 -16 -16h-230l-39 -94q-6 -13 -19 -13h-70q-20 0 -12 19l37 88h-89q-16 0 -16 16v94q0 16 16 16h141l36 86h-177q-16 0 -16 17v93q0 17 16 17h230l39 93q6 13 19 13h70q20 0 12 -19l-36 -87h88q16 0 16 -17v-93
q0 -17 -16 -17z" />
    <glyph glyph-name="lessequal" unicode="&#x2264;" 
d="M509 178l-423 143q-13 4 -13 19v103q0 14 13 18l423 144q18 5 18 -14v-99q0 -14 -14 -18l-254 -81v-4l254 -80q14 -4 14 -19v-98q0 -19 -18 -14zM89 0q-16 0 -16 16v101q0 16 16 16h422q16 0 16 -16v-101q0 -16 -16 -16h-422z" />
    <glyph glyph-name="greaterequal" unicode="&#x2265;" 
d="M91 178q-18 -5 -18 14v98q0 15 14 19l254 80v4l-254 81q-14 4 -14 18v99q0 19 18 14l423 -144q13 -4 13 -18v-103q0 -15 -13 -19zM89 0q-16 0 -16 16v101q0 16 16 16h422q16 0 16 -16v-101q0 -16 -16 -16h-422z" />
    <glyph glyph-name="filledbox" unicode="&#x25a0;" horiz-adv-x="900" 
d="M115 0q-15 0 -15 15v670q0 15 15 15h670q15 0 15 -15v-670q0 -15 -15 -15h-670z" />
    <glyph glyph-name="triagup" unicode="&#x25b2;" horiz-adv-x="900" 
d="M120 0q-19 0 -11 18l331 662q4 8 10 8t10 -8l331 -662q8 -18 -11 -18h-660z" />
    <glyph glyph-name="triagdn" unicode="&#x25bc;" horiz-adv-x="900" 
d="M440 20l-331 662q-8 18 11 18h660q19 0 11 -18l-331 -662q-4 -8 -10 -8t-10 8z" />
    <glyph glyph-name="uni25C6" unicode="&#x25c6;" horiz-adv-x="900" 
d="M438 11l-327 327q-11 11 0 22l327 329q11 11 22 0l329 -329q11 -11 0 -22l-329 -327q-11 -11 -22 0z" />
    <glyph glyph-name="lozenge" unicode="&#x25ca;" horiz-adv-x="685" 
d="M655 361q8 -11 0 -22l-234 -329q-7 -10 -21 -10h-115q-14 0 -20 10l-235 329q-8 11 0 22l235 329q6 10 20 10h115q14 0 21 -10zM344 149l143 201l-143 201h-2l-144 -201l144 -201h2z" />
    <glyph glyph-name="uni25CF" unicode="&#x25cf;" horiz-adv-x="900" 
d="M450 0q-145 0 -247.5 102.5t-102.5 247.5t102.5 247.5t247.5 102.5t247.5 -102.5t102.5 -247.5t-102.5 -247.5t-247.5 -102.5z" />
    <glyph glyph-name="uni2610" unicode="&#x2610;" horiz-adv-x="900" 
d="M116 0q-16 0 -16 16v668q0 16 16 16h668q16 0 16 -16v-668q0 -16 -16 -16h-668zM182 77h536v546h-536v-546z" />
    <glyph glyph-name="uni2611" unicode="&#x2611;" horiz-adv-x="900" 
d="M784 700q16 0 16 -16v-668q0 -16 -16 -16h-668q-16 0 -16 16v668q0 16 16 16h668zM718 77v546h-536v-546h536zM249 228q-14 8 -6 23l54 92q8 16 23 6l72 -41l149 257q8 16 23 6l86 -50q13 -7 6 -22l-211 -365q-8 -15 -22 -6z" />
    <glyph glyph-name="uni2612" unicode="&#x2612;" horiz-adv-x="900" 
d="M116 0q-16 0 -16 16v668q0 16 16 16h668q16 0 16 -16v-668q0 -16 -16 -16h-668zM182 77h536v546h-536v-546zM303 137l-67 66q-10 12 0 24l124 123l-124 123q-10 12 0 24l67 66q11 13 24 0l123 -123l123 123q11 13 24 0l66 -66q12 -12 0 -24l-124 -123l124 -123
q12 -12 0 -24l-66 -66q-13 -13 -24 0l-123 123l-123 -123q-13 -13 -24 0z" />
    <glyph glyph-name="heart" unicode="&#x2665;" horiz-adv-x="900" 
d="M439 58q-35 33 -85.5 68.5t-87 60.5t-71 56.5t-53 72.5t-18.5 93q0 93 53.5 145t123.5 52q58 0 100.5 -36t47.5 -100h2q5 64 47.5 100t100.5 36q70 0 123.5 -52t53.5 -145q0 -52 -18.5 -93t-53 -72.5t-71 -56.5t-87 -60.5t-85.5 -68.5q-11 -9 -22 0z" />
    <glyph glyph-name="uni2B51" unicode="&#x2b51;" horiz-adv-x="900" 
d="M243 15q-9 -7 -13.5 -3t-1.5 15l79 242l-204 148q-9 7 -7 12.5t13 5.5h253l77 240q2 7 6 9.5t8 0t6 -9.5l77 -241h255q11 0 13 -5.5t-7 -12.5l-206 -149l78 -240q3 -10 -2 -14t-13 2l-205 150z" />
    <glyph glyph-name="currency_acutecomb" horiz-adv-x="643" 
d="M44 325q0 16 16 16h131q17 0 17 -16v-68q0 -62 25 -90t77 -28q105 0 105 118v294h-257q-16 0 -16 16v117q0 16 16 16h402q17 0 17 -16v-436q0 -126 -69 -193.5t-198 -67.5q-128 0 -197 67t-69 190v81zM270 787l83 134q8 11 20 11h135q10 0 12 -4t2 -6q0 -5 -4 -10
l-107 -134q-6 -10 -19 -10h-111q-10 0 -12 4t-2 6q0 4 3 9z" />
    <glyph glyph-name="G.ss01" horiz-adv-x="802" 
d="M148 609q103 104 264 104q124 0 215.5 -63.5t116.5 -167.5v-5q0 -12 -15 -12h-143q-15 0 -19 13q-15 39 -56 61.5t-98 22.5q-93 0 -148 -57.5t-55 -154.5q0 -98 56 -155.5t150 -57.5q72 0 120 34t62 96h-158q-16 0 -16 17v98q0 17 16 17h289q17 0 17 -17v-366
q0 -16 -17 -16h-96q-17 0 -17 16v67h-2q-31 -45 -88 -70.5t-131 -25.5q-153 0 -252 103.5t-99 257.5q0 156 104 261z" />
    <glyph glyph-name="Gbreve.ss01" horiz-adv-x="801" 
d="M148 609q103 104 264 104q124 0 215.5 -63.5t116.5 -167.5v-5q0 -12 -15 -12h-143q-15 0 -19 13q-15 39 -56 61.5t-98 22.5q-93 0 -148 -57.5t-55 -154.5q0 -98 56 -155.5t150 -57.5q72 0 120 34t62 96h-158q-16 0 -16 17v98q0 17 16 17h289q17 0 17 -17v-366
q0 -16 -17 -16h-96q-17 0 -17 16v67h-2q-31 -45 -88 -70.5t-131 -25.5q-153 0 -252 103.5t-99 257.5q0 156 104 261zM252 926h85q16 0 17 -16q7 -52 58 -52q50 0 57 52q3 16 18 16h84q17 0 17 -16q0 -67 -47 -108q-48 -41 -129 -41t-128.5 41t-47.5 108q0 16 16 16z" />
    <glyph glyph-name="Gcaron.ss01" horiz-adv-x="801" 
d="M148 609q103 104 264 104q124 0 215.5 -63.5t116.5 -167.5v-5q0 -12 -15 -12h-143q-15 0 -19 13q-15 39 -56 61.5t-98 22.5q-93 0 -148 -57.5t-55 -154.5q0 -98 56 -155.5t150 -57.5q72 0 120 34t62 96h-158q-16 0 -16 17v98q0 17 16 17h289q17 0 17 -17v-366
q0 -16 -17 -16h-96q-17 0 -17 16v67h-2q-31 -45 -88 -70.5t-131 -25.5q-153 0 -252 103.5t-99 257.5q0 156 104 261zM217 926q3 6 13 6h107q14 0 20 -9l52 -69h4l52 69q7 9 20 9h108q10 0 12 -4t2 -6q0 -4 -5 -10l-110 -135q-9 -10 -20 -10h-121q-11 0 -20 10l-110 135
q-5 6 -5 10q0 2 1 4z" />
    <glyph glyph-name="Gcircumflex.ss01" horiz-adv-x="801" 
d="M148 609q103 104 264 104q124 0 215.5 -63.5t116.5 -167.5v-5q0 -12 -15 -12h-143q-15 0 -19 13q-15 39 -56 61.5t-98 22.5q-93 0 -148 -57.5t-55 -154.5q0 -98 56 -155.5t150 -57.5q72 0 120 34t62 96h-158q-16 0 -16 17v98q0 17 16 17h289q17 0 17 -17v-366
q0 -16 -17 -16h-96q-17 0 -17 16v67h-2q-31 -45 -88 -70.5t-131 -25.5q-153 0 -252 103.5t-99 257.5q0 156 104 261zM221 787l110 136q8 9 20 9h121q12 0 20 -9l110 -136q5 -6 5 -10q0 -2 -2 -6t-12 -4h-108q-13 0 -20 10l-52 68h-3l-53 -68q-6 -10 -20 -10h-107
q-10 0 -12 4t-2 6q0 4 5 10z" />
    <glyph glyph-name="uni0122.ss01" horiz-adv-x="801" 
d="M148 609q103 104 264 104q124 0 215.5 -63.5t116.5 -167.5v-5q0 -12 -15 -12h-143q-15 0 -19 13q-15 39 -56 61.5t-98 22.5q-93 0 -148 -57.5t-55 -154.5q0 -98 56 -155.5t150 -57.5q72 0 120 34t62 96h-158q-16 0 -16 17v98q0 17 16 17h289q17 0 17 -17v-366
q0 -16 -17 -16h-96q-17 0 -17 16v67h-2q-31 -45 -88 -70.5t-131 -25.5q-153 0 -252 103.5t-99 257.5q0 156 104 261zM317 -247l17 156q1 16 16 16h115q15 0 15 -12q0 -3 -1 -7l-43 -156q-3 -14 -18 -14h-86q-15 0 -15 14v3z" />
    <glyph glyph-name="Gdotaccent.ss01" horiz-adv-x="801" 
d="M148 609q103 104 264 104q124 0 215.5 -63.5t116.5 -167.5v-5q0 -12 -15 -12h-143q-15 0 -19 13q-15 39 -56 61.5t-98 22.5q-93 0 -148 -57.5t-55 -154.5q0 -98 56 -155.5t150 -57.5q72 0 120 34t62 96h-158q-16 0 -16 17v98q0 17 16 17h289q17 0 17 -17v-366
q0 -16 -17 -16h-96q-17 0 -17 16v67h-2q-31 -45 -88 -70.5t-131 -25.5q-153 0 -252 103.5t-99 257.5q0 156 104 261zM318 856q0 40 26.5 66t67.5 26q40 0 66.5 -26t26.5 -66t-26.5 -65.5t-66.5 -25.5q-41 0 -67.5 25.5t-26.5 65.5z" />
    <glyph glyph-name="uni1E20.ss01" horiz-adv-x="801" 
d="M148 609q103 104 264 104q124 0 215.5 -63.5t116.5 -167.5v-5q0 -12 -15 -12h-143q-15 0 -19 13q-15 39 -56 61.5t-98 22.5q-93 0 -148 -57.5t-55 -154.5q0 -98 56 -155.5t150 -57.5q72 0 120 34t62 96h-158q-16 0 -16 17v98q0 17 16 17h289q17 0 17 -17v-366
q0 -16 -17 -16h-96q-17 0 -17 16v67h-2q-31 -45 -88 -70.5t-131 -25.5q-153 0 -252 103.5t-99 257.5q0 156 104 261zM253 797v81q0 16 17 16h284q16 0 16 -16v-81q0 -17 -16 -17h-284q-17 0 -17 17z" />
    <glyph glyph-name="i.loclTRK" horiz-adv-x="267" 
d="M58 466q0 17 16 17h119q17 0 17 -17v-450q0 -16 -17 -16h-119q-16 0 -16 16v450zM40 639q0 40 27 66t67 26t67 -26t27 -66q0 -39 -27 -65t-67 -26t-67 26t-27 65z" />
    <glyph glyph-name="j_acutecomb" horiz-adv-x="267" 
d="M-60 -205v103q0 14 13 14h5t11 -0.5t12 -0.5q42 0 59.5 18t17.5 65v472q0 17 16 17h119q17 0 17 -17v-485q0 -109 -46.5 -159.5t-142.5 -50.5q-39 0 -67 7q-14 3 -14 17zM43 570l61 132q4 13 19 13h124q15 0 15 -9q0 -5 -3 -11l-77 -133q-6 -11 -20 -11h-107
q-9 0 -11.5 4t-2.5 7q0 4 2 8z" />
    <glyph glyph-name="y.ss02" horiz-adv-x="562" 
d="M26 483h131q13 0 19 -13l103 -294h4l103 294q4 13 19 13h131q14 0 14 -11q0 -3 -1 -8l-273 -667q-6 -13 -20 -13h-133q-14 0 -14 10q0 4 2 9l87 208l-185 453q-2 5 -2 9q0 10 15 10z" />
    <glyph glyph-name="yacute.ss02" horiz-adv-x="562" 
d="M26 483h131q13 0 19 -13l103 -294h4l103 294q4 13 19 13h131q14 0 14 -11q0 -3 -1 -8l-273 -667q-6 -13 -20 -13h-133q-14 0 -14 10q0 4 2 9l87 208l-185 453q-2 5 -2 9q0 10 15 10zM187 570l83 134q8 11 20 11h135q10 0 12 -4t2 -6q0 -5 -4 -10l-107 -134
q-6 -10 -19 -10h-111q-10 0 -12 4t-2 6q0 4 3 9z" />
    <glyph glyph-name="ycircumflex.ss02" horiz-adv-x="562" 
d="M26 483h131q13 0 19 -13l103 -294h4l103 294q4 13 19 13h131q14 0 14 -11q0 -3 -1 -8l-273 -667q-6 -13 -20 -13h-133q-14 0 -14 10q0 4 2 9l87 208l-185 453q-2 5 -2 9q0 10 15 10zM91 570l110 135q9 10 20 10h121q11 0 20 -10l110 -135q5 -6 5 -10q0 -2 -2 -6t-13 -4
h-107q-13 0 -20 10l-52 67h-3l-53 -67q-7 -10 -20 -10h-107q-10 0 -12 4t-2 6q0 4 5 10z" />
    <glyph glyph-name="ydieresis.ss02" horiz-adv-x="562" 
d="M26 483h131q13 0 19 -13l103 -294h4l103 294q4 13 19 13h131q14 0 14 -11q0 -3 -1 -8l-273 -667q-6 -13 -20 -13h-133q-14 0 -14 10q0 4 2 9l87 208l-185 453q-2 5 -2 9q0 10 15 10zM335 695q23 24 60 24q36 0 59.5 -24.5t23.5 -61.5t-23.5 -61.5t-59.5 -24.5
q-37 0 -60.5 24.5t-23.5 61.5t24 62zM108 695q23 24 59 24q37 0 60.5 -24.5t23.5 -61.5t-23.5 -61.5t-60.5 -24.5q-36 0 -59.5 24.5t-23.5 61.5t24 62z" />
    <glyph glyph-name="ygrave.ss02" horiz-adv-x="562" 
d="M26 483h131q13 0 19 -13l103 -294h4l103 294q4 13 19 13h131q14 0 14 -11q0 -3 -1 -8l-273 -667q-6 -13 -20 -13h-133q-14 0 -14 10q0 4 2 9l87 208l-185 453q-2 5 -2 9q0 10 15 10zM117 709q3 6 13 6h135q12 0 20 -11l83 -134q4 -7 4 -11q0 -8 -15 -8h-110q-14 0 -20 10
l-106 134q-5 6 -5 10q0 2 1 4z" />
    <glyph glyph-name="f_f.dlig" horiz-adv-x="783" 
d="M761 707q13 -4 13 -18v-97q0 -18 -18 -15q-20 4 -45 4q-47 0 -65.5 -17.5t-18.5 -60.5v-20h123q16 0 16 -17v-98q0 -17 -16 -17h-123v-335q0 -16 -17 -16h-119q-16 0 -16 16v335h-211v-335q0 -16 -17 -16h-119q-16 0 -16 16v335h-78q-17 0 -17 17v98q0 17 17 17h78v23
q0 107 49.5 159.5t151.5 52.5q44 0 85 -11q13 -4 13 -18v-97q0 -18 -17 -15q-21 4 -46 4q-47 0 -65.5 -17.5t-18.5 -60.5v-20h211v23q0 107 49.5 159.5t151.5 52.5q44 0 85 -11z" />
    <glyph glyph-name="t_t.dlig" horiz-adv-x="820" 
d="M29 483h78v116q0 17 17 17h119q16 0 16 -17v-116h219v116q0 17 17 17h119q16 0 16 -17v-116h142q17 0 17 -17v-98q0 -17 -17 -17h-142v-144q0 -45 19 -63.5t64 -18.5q34 0 60 11q5 2 9 2q10 0 10 -14v-101q0 -13 -11 -18q-42 -18 -102 -18q-201 0 -201 199v165h-219v-144
q0 -45 19 -63.5t64 -18.5q34 0 60 11q5 2 9 2q10 0 10 -14v-101q0 -13 -11 -18q-42 -18 -102 -18q-101 0 -151 48.5t-50 150.5v165h-78q-17 0 -17 17v98q0 17 17 17z" />
    <glyph glyph-name="zero.lf" horiz-adv-x="679" 
d="M340 -13q-137 0 -216.5 96.5t-79.5 266.5t79.5 266.5t216.5 96.5t216 -96t79 -267t-79 -267t-216 -96zM340 133q64 0 99 54t35 163t-35 163t-99 54q-135 0 -135 -217t135 -217z" />
    <glyph glyph-name="one.lf" horiz-adv-x="418" 
d="M323 700q16 0 16 -16v-668q0 -16 -16 -16h-125q-17 0 -17 16v515l-128 -74q-8 -5 -14 -1.5t-6 13.5v124q0 13 12 19l143 82q8 6 21 6h114z" />
    <glyph glyph-name="two.lf" horiz-adv-x="581" 
d="M524 144q17 0 17 -17v-111q0 -16 -17 -16h-468q-17 0 -17 16v43q0 118 37.5 180t141.5 113l84 41q87 45 87 103q0 33 -22.5 52.5t-62.5 19.5q-43 0 -69.5 -23t-31.5 -65q-2 -17 -16 -17h-129q-18 0 -16 17q5 109 73.5 171t185.5 62q114 0 179.5 -58t65.5 -158
q0 -72 -38 -124t-125 -94l-84 -40q-46 -24 -67 -44.5t-28 -50.5h320z" />
    <glyph glyph-name="three.lf" horiz-adv-x="595" 
d="M300 -13q-119 0 -187 57t-75 163q-2 17 16 17h127q15 0 18 -15q14 -77 102 -77q46 0 72.5 21.5t26.5 56.5t-26.5 54.5t-77.5 19.5h-43q-16 0 -16 17v109q0 16 16 16h40q44 0 70 20.5t26 53.5q0 32 -23.5 50.5t-64.5 18.5q-85 0 -97 -78q-2 -15 -16 -15h-128q-17 0 -16 16
q8 106 74.5 163.5t181.5 57.5t181.5 -53.5t66.5 -141.5q0 -56 -28.5 -98t-83.5 -60v-4q60 -16 92.5 -59.5t32.5 -104.5q0 -90 -69.5 -147.5t-191.5 -57.5z" />
    <glyph glyph-name="four.lf" horiz-adv-x="623" 
d="M580 268q17 0 17 -17v-103q0 -16 -17 -16h-61v-116q0 -16 -16 -16h-118q-16 0 -16 16v116h-327q-16 0 -16 16v101q0 9 6 20l304 421q7 10 21 10h146q16 0 16 -16v-416h61zM193 268h176v239h-3z" />
    <glyph glyph-name="five.lf" horiz-adv-x="597" 
d="M325 470q107 0 175 -64.5t68 -171.5q0 -111 -73.5 -179t-195.5 -68q-110 0 -180.5 56t-79.5 151q-2 16 15 16h125q14 0 18 -14q8 -30 35.5 -48t67.5 -18q51 0 80.5 29.5t29.5 77.5q0 47 -28 75t-76 28q-61 0 -96 -40q-9 -10 -20 -10h-129q-17 0 -15 17l48 378q2 15 17 15
h399q17 0 17 -16v-109q0 -17 -17 -17h-288l-15 -113q51 25 118 25z" />
    <glyph glyph-name="six.lf" horiz-adv-x="624" 
d="M353 463q105 0 172.5 -66.5t67.5 -169.5q0 -107 -72.5 -173.5t-194.5 -66.5q-118 0 -191 68q-91 86 -91 281q0 185 76 281t217 96q100 0 163 -47.5t80 -136.5q3 -18 -15 -18h-124q-14 0 -18 13q-19 51 -88 51q-117 0 -132 -170h3q55 58 147 58zM325 121q50 0 80 29t30 77
t-30 77t-80 29t-80 -28.5t-30 -77.5t30 -77.5t80 -28.5z" />
    <glyph glyph-name="seven.lf" horiz-adv-x="526" 
d="M486 700q16 0 16 -16v-101q0 -12 -4 -21l-252 -550q-4 -12 -19 -12h-131q-21 0 -13 20l246 534h-289q-17 0 -17 17v113q0 16 17 16h446z" />
    <glyph glyph-name="eight.lf" horiz-adv-x="623" 
d="M312 -13q-128 0 -201 57t-73 150q0 57 30.5 102.5t89.5 68.5v3q-101 45 -101 152q0 85 67 139t188 54t188 -54t67 -139q0 -107 -101 -152v-3q59 -23 89 -68.5t30 -102.5q0 -93 -73 -150t-200 -57zM312 423q46 0 71.5 21t25.5 56q0 36 -25.5 57t-71.5 21q-47 0 -72.5 -21
t-25.5 -57q0 -35 25.5 -56t72.5 -21zM312 122q54 0 83 23t29 62t-29 62t-83 23q-55 0 -84 -23t-29 -62t29 -62t84 -23z" />
    <glyph glyph-name="nine.lf" horiz-adv-x="627" 
d="M493 643q89 -84 89 -279q0 -185 -75 -281t-217 -96q-101 0 -164 47.5t-79 136.5q-3 18 15 18h125q12 0 18 -14q18 -50 88 -50q58 0 91 40.5t40 131.5h-2q-53 -58 -147 -58q-105 0 -172 65.5t-67 168.5q0 105 72.5 172.5t192.5 67.5q119 0 192 -70zM302 366
q50 0 80.5 29.5t30.5 77.5q0 47 -30.5 76t-79.5 29q-50 0 -80 -29t-30 -77t30 -77t79 -29z" />
    <glyph glyph-name="zero.tf" horiz-adv-x="650" 
d="M325 -13q-137 0 -216 96t-79 267t79 267t216 96t216 -96t79 -267t-79 -267t-216 -96zM325 133q135 0 135 217t-135 217t-135 -217t135 -217z" />
    <glyph glyph-name="one.tf" horiz-adv-x="650" 
d="M428 700q17 0 17 -16v-668q0 -16 -17 -16h-125q-17 0 -17 16v515l-128 -74q-8 -5 -13.5 -1.5t-5.5 13.5v124q0 13 11 19l143 82q8 6 21 6h114z" />
    <glyph glyph-name="two.tf" horiz-adv-x="650" 
d="M562 144q16 0 16 -17v-111q0 -16 -16 -16h-469q-17 0 -17 16v43q0 118 37.5 180t141.5 113l84 41q87 45 87 103q0 33 -22.5 52.5t-62.5 19.5q-43 0 -69.5 -23t-31.5 -65q-2 -17 -16 -17h-129q-16 0 -16 17q6 109 74 171t185 62q114 0 180 -58t66 -158q0 -71 -38.5 -123.5
t-125.5 -94.5l-84 -40q-46 -24 -67 -44.5t-28 -50.5h321z" />
    <glyph glyph-name="three.tf" horiz-adv-x="650" 
d="M329 -13q-119 0 -187 57t-75 163q-2 17 16 17h127q15 0 18 -15q14 -77 102 -77q46 0 72.5 21.5t26.5 56.5t-26.5 54.5t-77.5 19.5h-43q-16 0 -16 17v109q0 16 16 16h40q45 0 70.5 20t25.5 54q0 32 -23 50.5t-65 18.5q-85 0 -97 -78q-1 -15 -16 -15h-128q-17 0 -16 16
q8 106 74.5 163.5t181.5 57.5t181.5 -53.5t66.5 -141.5q0 -56 -28.5 -98t-83.5 -60v-4q60 -16 92.5 -59.5t32.5 -104.5q0 -91 -69 -148t-192 -57z" />
    <glyph glyph-name="four.tf" horiz-adv-x="650" 
d="M592 268q17 0 17 -17v-103q0 -16 -17 -16h-61v-116q0 -16 -16 -16h-118q-16 0 -16 16v116h-327q-16 0 -16 16v101q0 9 6 20l304 421q7 10 21 10h146q16 0 16 -16v-416h61zM205 268h176v239h-3z" />
    <glyph glyph-name="five.tf" horiz-adv-x="650" 
d="M355 470q108 0 175.5 -64.5t67.5 -171.5q0 -111 -73.5 -179t-194.5 -68q-110 0 -180.5 56t-80.5 151q-2 16 16 16h125q13 0 17 -14q8 -30 36 -48t68 -18q51 0 80.5 29.5t29.5 77.5q0 47 -28.5 75t-76.5 28q-62 0 -95 -40q-9 -10 -21 -10h-128q-18 0 -15 17l48 378
q1 15 17 15h399q16 0 16 -16v-109q0 -17 -16 -17h-289l-14 -113q51 25 117 25z" />
    <glyph glyph-name="six.tf" horiz-adv-x="650" 
d="M362 463q105 0 172.5 -66.5t67.5 -169.5q0 -107 -72.5 -173.5t-194.5 -66.5q-118 0 -191 68q-91 85 -91 281q0 185 75.5 281t216.5 96q101 0 164 -47.5t80 -136.5q1 -18 -16 -18h-123q-13 0 -19 13q-19 51 -87 51q-58 0 -91 -40t-41 -130h3q54 58 147 58zM334 121
q50 0 80 29t30 77t-30 77t-80 29t-80.5 -28.5t-30.5 -77.5t30.5 -77.5t80.5 -28.5z" />
    <glyph glyph-name="seven.tf" horiz-adv-x="650" 
d="M556 700q16 0 16 -16v-101q0 -12 -4 -21l-252 -550q-4 -12 -19 -12h-131q-9 0 -12.5 5.5t0.5 14.5l245 534h-289q-16 0 -16 17v113q0 16 16 16h446z" />
    <glyph glyph-name="eight.tf" horiz-adv-x="650" 
d="M325 -13q-128 0 -201 57t-73 150q0 57 30.5 102.5t89.5 68.5v3q-101 45 -101 152q0 85 67 139t188 54t188 -54t67 -139q0 -107 -101 -152v-3q59 -23 89.5 -68.5t30.5 -102.5q0 -93 -73 -150t-201 -57zM325 423q47 0 72.5 21t25.5 56q0 36 -25.5 57t-72.5 21t-72.5 -21
t-25.5 -57q0 -35 25.5 -56t72.5 -21zM325 122q54 0 83.5 23t29.5 62t-29.5 62t-83.5 23t-83.5 -23t-29.5 -62t29.5 -62t83.5 -23z" />
    <glyph glyph-name="nine.tf" horiz-adv-x="650" 
d="M513 643q90 -84 90 -279q0 -185 -75 -281t-217 -96q-101 0 -164 47.5t-79 136.5q-3 18 15 18h124q13 0 19 -14q16 -50 88 -50q58 0 90.5 40.5t40.5 131.5h-3q-52 -58 -146 -58q-105 0 -172.5 65.5t-67.5 168.5q0 105 73 172.5t193 67.5q119 0 191 -70zM323 366
q50 0 80.5 29.5t30.5 77.5q0 47 -30 76t-80 29t-80 -29t-30 -77t30 -77t79 -29z" />
    <glyph glyph-name="zero.subs" horiz-adv-x="380" 
d="M190 -65q-76 0 -119.5 52t-43.5 143t43.5 143t119.5 52q75 0 119 -52t44 -143t-44 -143t-119 -52zM190 31q56 0 56 99t-56 99q-57 0 -57 -99t57 -99z" />
    <glyph glyph-name="one.subs" horiz-adv-x="243" 
d="M185 317q17 0 17 -17v-340q0 -16 -17 -16h-71q-17 0 -17 16v245l-56 -32q-8 -5 -13.5 -1.5t-5.5 13.5v69q0 13 11 20l65 37q9 6 20 6h67z" />
    <glyph glyph-name="two.subs" horiz-adv-x="327" 
d="M285 37q16 0 16 -16v-61q0 -16 -16 -16h-245q-17 0 -17 16v16q0 68 20 104t76 62l47 23q37 15 37 38q0 28 -33 28q-29 0 -37 -26q-5 -14 -17 -14h-75q-17 0 -15 16q5 55 42.5 86.5t100.5 31.5q64 0 101 -32t37 -87q0 -77 -88 -116l-47 -22q-30 -14 -39 -31h152z" />
    <glyph glyph-name="three.subs" horiz-adv-x="334" 
d="M252 132q61 -21 61 -85q0 -49 -38.5 -80.5t-106.5 -31.5q-65 0 -104 34q-34 30 -40 80q-2 17 15 17h74q10 0 18 -14q9 -22 39 -22q17 0 27 8.5t10 21.5q0 29 -40 29h-17q-16 0 -16 16v51q0 17 16 17h16q38 0 38 31q0 26 -34 26q-30 0 -37 -22q-5 -15 -17 -15h-74
q-17 0 -15 16q6 53 45 86q36 30 97 30q64 0 101 -29.5t37 -78.5q0 -61 -55 -85z" />
    <glyph glyph-name="four.subs" horiz-adv-x="349" 
d="M314 95q17 0 17 -16v-56q0 -17 -17 -17h-19v-46q0 -16 -16 -16h-64q-17 0 -17 16v46h-163q-16 0 -16 17v56q0 10 7 20l149 208q7 10 20 10h84q16 0 16 -17v-205h19zM124 95h74v102z" />
    <glyph glyph-name="five.subs" horiz-adv-x="334" 
d="M183 193q58 0 95.5 -35t37.5 -90q0 -59 -41 -96t-108 -37q-62 0 -102 34q-35 30 -41 72q-3 17 16 17h70q10 0 20 -12q11 -17 38 -17q21 0 33 11.5t12 30.5q0 18 -11.5 29t-31.5 11t-34 -12q-11 -9 -20 -9h-74q-17 0 -15 17l24 194q1 16 17 16h209q16 0 16 -17v-57
q0 -17 -16 -17h-144l-6 -44q23 11 56 11z" />
    <glyph glyph-name="six.subs" horiz-adv-x="349" 
d="M199 191q57 0 94 -36t37 -91q0 -57 -40.5 -93t-106.5 -36q-63 0 -104 36q-52 46 -52 152q0 99 41 150.5t120 51.5q111 0 134 -98q3 -17 -15 -17h-70q-9 0 -19 12q-9 15 -32 15q-46 0 -54 -63q29 17 67 17zM182 22q20 0 32 11.5t12 31.5q0 19 -12.5 31t-33.5 12
q-20 0 -31.5 -11.5t-11.5 -31.5t12 -31.5t33 -11.5z" />
    <glyph glyph-name="seven.subs" horiz-adv-x="294" 
d="M261 317q17 0 17 -17v-57q0 -11 -5 -20l-121 -267q-4 -12 -18 -12h-76q-20 0 -12 19l118 258h-131q-16 0 -16 17v62q0 17 16 17h228z" />
    <glyph glyph-name="eight.subs" horiz-adv-x="348" 
d="M174 -65q-71 0 -110.5 31t-39.5 82q0 64 59 91q-49 27 -49 81q0 46 37 75.5t103 29.5t103 -29.5t37 -75.5q0 -53 -49 -81q59 -28 59 -91q0 -51 -39.5 -82t-110.5 -31zM174 176q39 0 39 31t-39 31t-39 -31t39 -31zM174 24q45 0 45 33t-45 33t-45 -33t45 -33z" />
    <glyph glyph-name="nine.subs" horiz-adv-x="351" 
d="M273 288q52 -46 52 -151q0 -98 -41.5 -150t-119.5 -52q-57 0 -90 26q-35 25 -45 71q-2 8 2.5 13t12.5 5h71q9 0 19 -13q8 -13 32 -13q47 0 55 63q-30 -18 -68 -18q-56 0 -93 35.5t-37 90.5q0 57 40 93.5t106 36.5q64 0 104 -37zM172 152q20 0 32 11.5t12 31.5
q0 19 -12.5 30.5t-33.5 11.5q-20 0 -32 -11.5t-12 -30.5t12.5 -31t33.5 -12z" />
    <glyph glyph-name="zero.dnom" horiz-adv-x="380" 
d="M190 -15q-76 0 -119.5 52t-43.5 143t43.5 143t119.5 52q75 0 119 -52t44 -143t-44 -143t-119 -52zM190 81q56 0 56 99t-56 99q-57 0 -57 -99t57 -99z" />
    <glyph glyph-name="one.dnom" horiz-adv-x="243" 
d="M185 367q17 0 17 -17v-340q0 -16 -17 -16h-71q-17 0 -17 16v245l-56 -32q-8 -5 -13.5 -1.5t-5.5 13.5v69q0 13 11 20l65 37q9 6 20 6h67z" />
    <glyph glyph-name="two.dnom" horiz-adv-x="327" 
d="M285 87q16 0 16 -16v-61q0 -16 -16 -16h-245q-17 0 -17 16v16q0 68 20 104t76 62l47 23q37 15 37 38q0 28 -33 28q-29 0 -37 -26q-5 -14 -17 -14h-75q-17 0 -15 16q5 55 42.5 86.5t100.5 31.5q64 0 101 -32t37 -87q0 -77 -88 -116l-47 -22q-30 -14 -39 -31h152z" />
    <glyph glyph-name="three.dnom" horiz-adv-x="334" 
d="M252 182q61 -21 61 -85q0 -49 -38.5 -80.5t-106.5 -31.5q-65 0 -104 34q-34 30 -40 80q-2 17 15 17h74q10 0 18 -14q9 -22 39 -22q17 0 27 8.5t10 21.5q0 29 -40 29h-17q-16 0 -16 16v51q0 17 16 17h16q38 0 38 31q0 26 -34 26q-30 0 -37 -22q-5 -15 -17 -15h-74
q-17 0 -15 16q6 53 45 86q36 30 97 30q64 0 101 -29.5t37 -78.5q0 -61 -55 -85z" />
    <glyph glyph-name="four.dnom" horiz-adv-x="349" 
d="M314 145q17 0 17 -16v-56q0 -17 -17 -17h-19v-46q0 -16 -16 -16h-64q-17 0 -17 16v46h-163q-16 0 -16 17v56q0 10 7 20l149 208q7 10 20 10h84q16 0 16 -17v-205h19zM124 145h74v102z" />
    <glyph glyph-name="five.dnom" horiz-adv-x="334" 
d="M183 243q58 0 95.5 -35t37.5 -90q0 -59 -41 -96t-108 -37q-62 0 -102 34q-35 30 -41 72q-3 17 16 17h70q10 0 20 -12q11 -17 38 -17q21 0 33 11.5t12 30.5q0 18 -11.5 29t-31.5 11t-34 -12q-11 -9 -20 -9h-74q-17 0 -15 17l24 194q1 16 17 16h209q16 0 16 -17v-57
q0 -17 -16 -17h-144l-6 -44q23 11 56 11z" />
    <glyph glyph-name="six.dnom" horiz-adv-x="349" 
d="M199 241q57 0 94 -36t37 -91q0 -57 -40.5 -93t-106.5 -36q-63 0 -104 36q-52 46 -52 152q0 99 41 150.5t120 51.5q111 0 134 -98q3 -17 -15 -17h-70q-9 0 -19 12q-9 15 -32 15q-46 0 -54 -63q29 17 67 17zM182 72q20 0 32 11.5t12 31.5q0 19 -12.5 31t-33.5 12
q-20 0 -31.5 -11.5t-11.5 -31.5t12 -31.5t33 -11.5z" />
    <glyph glyph-name="seven.dnom" horiz-adv-x="294" 
d="M261 367q17 0 17 -17v-57q0 -11 -5 -20l-121 -267q-4 -12 -18 -12h-76q-20 0 -12 19l118 258h-131q-16 0 -16 17v62q0 17 16 17h228z" />
    <glyph glyph-name="eight.dnom" horiz-adv-x="348" 
d="M174 -15q-71 0 -110.5 31t-39.5 82q0 64 59 91q-49 27 -49 81q0 46 37 75.5t103 29.5t103 -29.5t37 -75.5q0 -53 -49 -81q59 -28 59 -91q0 -51 -39.5 -82t-110.5 -31zM174 226q39 0 39 31t-39 31t-39 -31t39 -31zM174 74q45 0 45 33t-45 33t-45 -33t45 -33z" />
    <glyph glyph-name="nine.dnom" horiz-adv-x="351" 
d="M273 338q52 -46 52 -151q0 -98 -41.5 -150t-119.5 -52q-57 0 -90 26q-35 25 -45 71q-2 8 2.5 13t12.5 5h71q9 0 19 -13q8 -13 32 -13q47 0 55 63q-30 -18 -68 -18q-56 0 -93 35.5t-37 90.5q0 57 40 93.5t106 36.5q64 0 104 -37zM172 202q20 0 32 11.5t12 31.5
q0 19 -12.5 30.5t-33.5 11.5q-20 0 -32 -11.5t-12 -30.5t12.5 -31t33.5 -12z" />
    <glyph glyph-name="zero.numr" horiz-adv-x="380" 
d="M190 323q-76 0 -119.5 52t-43.5 143t43.5 143t119.5 52q75 0 119 -52t44 -143t-44 -143t-119 -52zM190 419q56 0 56 99t-56 99q-57 0 -57 -99t57 -99z" />
    <glyph glyph-name="one.numr" horiz-adv-x="243" 
d="M185 705q17 0 17 -17v-340q0 -16 -17 -16h-71q-17 0 -17 16v245l-56 -32q-8 -5 -13.5 -1.5t-5.5 13.5v69q0 13 11 20l65 37q9 6 20 6h67z" />
    <glyph glyph-name="two.numr" horiz-adv-x="327" 
d="M285 425q16 0 16 -16v-61q0 -16 -16 -16h-245q-17 0 -17 16v16q0 68 20 104t76 62l47 23q37 15 37 38q0 28 -33 28q-29 0 -37 -26q-5 -14 -17 -14h-75q-17 0 -15 16q5 55 42.5 86.5t100.5 31.5q64 0 101 -32t37 -87q0 -77 -88 -116l-47 -22q-30 -14 -39 -31h152z" />
    <glyph glyph-name="three.numr" horiz-adv-x="334" 
d="M252 520q61 -21 61 -85q0 -49 -38.5 -80.5t-106.5 -31.5q-65 0 -104 34q-34 30 -40 80q-2 17 15 17h74q10 0 18 -14q9 -22 39 -22q17 0 27 8.5t10 21.5q0 29 -40 29h-17q-16 0 -16 16v51q0 17 16 17h16q38 0 38 31q0 26 -34 26q-30 0 -37 -22q-5 -15 -17 -15h-74
q-17 0 -15 16q6 53 45 86q36 30 97 30q64 0 101 -29.5t37 -78.5q0 -61 -55 -85z" />
    <glyph glyph-name="four.numr" horiz-adv-x="349" 
d="M314 483q17 0 17 -16v-56q0 -17 -17 -17h-19v-46q0 -16 -16 -16h-64q-17 0 -17 16v46h-163q-16 0 -16 17v56q0 10 7 20l149 208q7 10 20 10h84q16 0 16 -17v-205h19zM124 483h74v102z" />
    <glyph glyph-name="five.numr" horiz-adv-x="334" 
d="M183 581q58 0 95.5 -35t37.5 -90q0 -59 -41 -96t-108 -37q-62 0 -102 34q-35 30 -41 72q-3 17 16 17h70q10 0 20 -12q11 -17 38 -17q21 0 33 11.5t12 30.5q0 18 -11.5 29t-31.5 11t-34 -12q-11 -9 -20 -9h-74q-17 0 -15 17l24 194q1 16 17 16h209q16 0 16 -17v-57
q0 -17 -16 -17h-144l-6 -44q23 11 56 11z" />
    <glyph glyph-name="six.numr" horiz-adv-x="349" 
d="M199 579q57 0 94 -36t37 -91q0 -57 -40.5 -93t-106.5 -36q-63 0 -104 36q-52 46 -52 152q0 99 41 150.5t120 51.5q111 0 134 -98q3 -17 -15 -17h-70q-9 0 -19 12q-9 15 -32 15q-46 0 -54 -63q29 17 67 17zM182 410q20 0 32 11.5t12 31.5q0 19 -12.5 31t-33.5 12
q-20 0 -31.5 -11.5t-11.5 -31.5t12 -31.5t33 -11.5z" />
    <glyph glyph-name="seven.numr" horiz-adv-x="294" 
d="M261 705q17 0 17 -17v-57q0 -11 -5 -20l-121 -267q-4 -12 -18 -12h-76q-20 0 -12 19l118 258h-131q-16 0 -16 17v62q0 17 16 17h228z" />
    <glyph glyph-name="eight.numr" horiz-adv-x="348" 
d="M174 323q-71 0 -110.5 31t-39.5 82q0 64 59 91q-49 27 -49 81q0 46 37 75.5t103 29.5t103 -29.5t37 -75.5q0 -53 -49 -81q59 -28 59 -91q0 -51 -39.5 -82t-110.5 -31zM174 564q39 0 39 31t-39 31t-39 -31t39 -31zM174 412q45 0 45 33t-45 33t-45 -33t45 -33z" />
    <glyph glyph-name="nine.numr" horiz-adv-x="351" 
d="M273 676q52 -46 52 -151q0 -98 -41.5 -150t-119.5 -52q-57 0 -90 26q-35 25 -45 71q-2 8 2.5 13t12.5 5h71q9 0 19 -13q8 -13 32 -13q47 0 55 63q-30 -18 -68 -18q-56 0 -93 35.5t-37 90.5q0 57 40 93.5t106 36.5q64 0 104 -37zM172 540q20 0 32 11.5t12 31.5
q0 19 -12.5 30.5t-33.5 11.5q-20 0 -32 -11.5t-12 -30.5t12.5 -31t33.5 -12z" />
    <glyph glyph-name="zero.sups" horiz-adv-x="380" 
d="M190 373q-76 0 -119.5 52t-43.5 143t43.5 143t119.5 52q75 0 119 -52t44 -143t-44 -143t-119 -52zM190 469q56 0 56 99t-56 99q-57 0 -57 -99t57 -99z" />
    <glyph glyph-name="one.sups" horiz-adv-x="243" 
d="M185 755q17 0 17 -17v-340q0 -16 -17 -16h-71q-17 0 -17 16v245l-56 -32q-8 -5 -13.5 -1.5t-5.5 13.5v69q0 13 11 20l65 37q9 6 20 6h67z" />
    <glyph glyph-name="two.sups" horiz-adv-x="327" 
d="M285 475q16 0 16 -16v-61q0 -16 -16 -16h-245q-17 0 -17 16v16q0 68 20 104t76 62l47 23q37 15 37 38q0 28 -33 28q-29 0 -37 -26q-5 -14 -17 -14h-75q-17 0 -15 16q5 55 42.5 86.5t100.5 31.5q64 0 101 -32t37 -87q0 -77 -88 -116l-47 -22q-30 -14 -39 -31h152z" />
    <glyph glyph-name="three.sups" horiz-adv-x="334" 
d="M252 570q61 -21 61 -85q0 -49 -38.5 -80.5t-106.5 -31.5q-65 0 -104 34q-34 30 -40 80q-2 17 15 17h74q10 0 18 -14q9 -22 39 -22q17 0 27 8.5t10 21.5q0 29 -40 29h-17q-16 0 -16 16v51q0 17 16 17h16q38 0 38 31q0 26 -34 26q-30 0 -37 -22q-5 -15 -17 -15h-74
q-17 0 -15 16q6 53 45 86q36 30 97 30q64 0 101 -29.5t37 -78.5q0 -61 -55 -85z" />
    <glyph glyph-name="four.sups" horiz-adv-x="349" 
d="M314 533q17 0 17 -16v-56q0 -17 -17 -17h-19v-46q0 -16 -16 -16h-64q-17 0 -17 16v46h-163q-16 0 -16 17v56q0 10 7 20l149 208q7 10 20 10h84q16 0 16 -17v-205h19zM124 533h74v102z" />
    <glyph glyph-name="five.sups" horiz-adv-x="334" 
d="M183 631q58 0 95.5 -35t37.5 -90q0 -59 -41 -96t-108 -37q-62 0 -102 34q-35 30 -41 72q-3 17 16 17h70q10 0 20 -12q11 -17 38 -17q21 0 33 11.5t12 30.5q0 18 -11.5 29t-31.5 11t-34 -12q-11 -9 -20 -9h-74q-17 0 -15 17l24 194q1 16 17 16h209q16 0 16 -17v-57
q0 -17 -16 -17h-144l-6 -44q23 11 56 11z" />
    <glyph glyph-name="six.sups" horiz-adv-x="349" 
d="M199 629q57 0 94 -36t37 -91q0 -57 -40.5 -93t-106.5 -36q-63 0 -104 36q-52 46 -52 152q0 99 41 150.5t120 51.5q111 0 134 -98q3 -17 -15 -17h-70q-9 0 -19 12q-9 15 -32 15q-46 0 -54 -63q29 17 67 17zM182 460q20 0 32 11.5t12 31.5q0 19 -12.5 31t-33.5 12
q-20 0 -31.5 -11.5t-11.5 -31.5t12 -31.5t33 -11.5z" />
    <glyph glyph-name="seven.sups" horiz-adv-x="294" 
d="M261 755q17 0 17 -17v-57q0 -11 -5 -20l-121 -267q-4 -12 -18 -12h-76q-20 0 -12 19l118 258h-131q-16 0 -16 17v62q0 17 16 17h228z" />
    <glyph glyph-name="eight.sups" horiz-adv-x="348" 
d="M174 373q-71 0 -110.5 31t-39.5 82q0 64 59 91q-49 27 -49 81q0 46 37 75.5t103 29.5t103 -29.5t37 -75.5q0 -53 -49 -81q59 -28 59 -91q0 -51 -39.5 -82t-110.5 -31zM174 614q39 0 39 31t-39 31t-39 -31t39 -31zM174 462q45 0 45 33t-45 33t-45 -33t45 -33z" />
    <glyph glyph-name="nine.sups" horiz-adv-x="351" 
d="M273 726q52 -46 52 -151q0 -98 -41.5 -150t-119.5 -52q-57 0 -90 26q-35 25 -45 71q-2 8 2.5 13t12.5 5h71q9 0 19 -13q8 -13 32 -13q47 0 55 63q-30 -18 -68 -18q-56 0 -93 35.5t-37 90.5q0 57 40 93.5t106 36.5q64 0 104 -37zM172 590q20 0 32 11.5t12 31.5
q0 19 -12.5 30.5t-33.5 11.5q-20 0 -32 -11.5t-12 -30.5t12.5 -31t33.5 -12z" />
    <glyph glyph-name="colon.case" horiz-adv-x="294" 
d="M147 409q-43 0 -69 26t-26 68t26.5 69t68.5 27q43 0 69.5 -27t26.5 -69t-26.5 -68t-69.5 -26zM147 101q-43 0 -69 26t-26 68t26 68.5t69 26.5t69.5 -26.5t26.5 -68.5t-26.5 -68t-69.5 -26z" />
    <glyph glyph-name="exclamdown.case" horiz-adv-x="314" 
d="M157 710q43 0 69.5 -26t26.5 -68q0 -43 -26.5 -69.5t-69.5 -26.5t-69.5 26.5t-26.5 69.5q0 42 26.5 68t69.5 26zM104 458h106q17 0 17 -16l13 -426q0 -16 -16 -16h-134q-16 0 -16 16l13 426q0 16 17 16z" />
    <glyph glyph-name="questiondown.case" horiz-adv-x="508" 
d="M275 712q43 0 69.5 -26.5t26.5 -68.5t-26.5 -68.5t-69.5 -26.5t-69.5 26.5t-26.5 68.5t26.5 68.5t69.5 26.5zM332 462q16 0 16 -16v-31q0 -49 -14.5 -75.5t-64.5 -68.5l-45 -38q-38 -31 -38 -61q0 -52 62 -52q74 0 84 74q2 17 17 17h109q18 0 16 -17q-6 -99 -63.5 -152
t-159.5 -53q-98 0 -154 48t-56 130q0 42 19 78t67 76l41 34q24 20 30 32t6 37v22q0 16 16 16h112z" />
    <glyph glyph-name="periodcentered.case" horiz-adv-x="314" 
d="M157 250q-43 0 -69 26t-26 69q0 42 26 68.5t69 26.5t69.5 -26.5t26.5 -68.5q0 -43 -26.5 -69t-69.5 -26z" />
    <glyph glyph-name="bullet.case" horiz-adv-x="535" 
d="M267 189q-72 0 -120.5 48.5t-48.5 119.5t48.5 120t120.5 49t120.5 -49t48.5 -120t-48.5 -119.5t-120.5 -48.5z" />
    <glyph glyph-name="parenleft.case" horiz-adv-x="360" 
d="M230 -81q-14 -9 -22 4q-71 88 -110 201.5t-39 225.5t39 225.5t110 201.5q8 13 22 4l88 -52q13 -8 4 -23q-53 -72 -83.5 -166.5t-30.5 -189.5t30.5 -189.5t83.5 -166.5q9 -15 -4 -23z" />
    <glyph glyph-name="parenright.case" horiz-adv-x="361" 
d="M130 -81l-88 52q-12 9 -4 23q53 72 83.5 166.5t30.5 189.5t-30.5 189.5t-83.5 166.5q-8 14 4 23l88 52q14 8 23 -4q70 -88 109 -201.5t39 -225.5t-39 -225.5t-109 -201.5q-9 -12 -23 -4z" />
    <glyph glyph-name="braceleft.case" horiz-adv-x="416" 
d="M275 -68q-84 0 -120 34.5t-36 112.5v143q0 31 -13.5 44.5t-42.5 15.5q-17 2 -17 17v102q0 15 17 17q31 2 43.5 16t12.5 44v143q0 78 36 112.5t120 34.5h81q17 0 17 -16v-99q0 -16 -17 -16h-33q-31 0 -44.5 -13t-13.5 -44v-103q0 -108 -93 -125v-4q93 -17 93 -125v-103
q0 -31 13.5 -44t44.5 -13h33q17 0 17 -16v-99q0 -16 -17 -16h-81z" />
    <glyph glyph-name="braceright.case" horiz-adv-x="416" 
d="M141 -68h-81q-17 0 -17 16v99q0 16 17 16h33q31 0 44.5 13t13.5 44v103q0 108 93 125v4q-93 17 -93 125v103q0 31 -13.5 44t-44.5 13h-33q-17 0 -17 16v99q0 16 17 16h81q84 0 120 -34.5t36 -112.5v-143q0 -30 12.5 -44t43.5 -16q17 -2 17 -17v-102q0 -15 -17 -17
q-29 -2 -42.5 -15.5t-13.5 -44.5v-143q0 -78 -36 -112.5t-120 -34.5z" />
    <glyph glyph-name="bracketleft.case" horiz-adv-x="386" 
d="M333 637h-115v-574h115q16 0 16 -16v-99q0 -16 -16 -16h-245q-16 0 -16 16v804q0 16 16 16h245q16 0 16 -16v-99q0 -16 -16 -16z" />
    <glyph glyph-name="bracketright.case" horiz-adv-x="386" 
d="M298 768q16 0 16 -16v-804q0 -16 -16 -16h-245q-16 0 -16 16v99q0 16 16 16h115v574h-115q-16 0 -16 16v99q0 16 16 16h245z" />
    <glyph glyph-name="hyphen.case" horiz-adv-x="373" 
d="M55 276q-17 0 -17 17v102q0 16 17 16h264q17 0 17 -16v-102q0 -17 -17 -17h-264z" />
    <glyph glyph-name="endash.case" horiz-adv-x="499" 
d="M55 276q-17 0 -17 17v102q0 16 17 16h390q17 0 17 -16v-102q0 -17 -17 -17h-390z" />
    <glyph glyph-name="emdash.case" horiz-adv-x="999" 
d="M55 276q-17 0 -17 17v102q0 16 17 16h890q17 0 17 -16v-102q0 -17 -17 -17h-890z" />
    <glyph glyph-name="guillemotleft.case" horiz-adv-x="608" 
d="M196 349l106 -164q5 -8 2.5 -14t-12.5 -6h-129q-13 0 -19 11l-105 162q-8 11 0 22l105 162q6 11 19 11h129q10 0 12.5 -6t-2.5 -14zM452 349l107 -164q5 -8 2 -14t-13 -6h-128q-13 0 -20 11l-105 162q-6 11 0 22l105 162q7 11 20 11h128q10 0 13 -6t-2 -14z" />
    <glyph glyph-name="guillemotright.case" horiz-adv-x="608" 
d="M313 360q8 -11 0 -22l-105 -162q-6 -11 -20 -11h-128q-10 0 -13 6t2 14l107 164l-107 164q-5 8 -2 14t13 6h128q14 0 20 -11zM569 360q8 -11 0 -22l-104 -162q-7 -11 -20 -11h-128q-10 0 -13 6t2 14l107 164l-107 164q-5 8 -2 14t13 6h128q13 0 20 -11z" />
    <glyph glyph-name="guilsinglleft.case" horiz-adv-x="352" 
d="M196 349l106 -164q5 -8 2.5 -14t-12.5 -6h-129q-13 0 -19 11l-105 162q-8 11 0 22l105 162q6 11 19 11h129q10 0 12.5 -6t-2.5 -14z" />
    <glyph glyph-name="guilsinglright.case" horiz-adv-x="352" 
d="M313 360q8 -11 0 -22l-105 -162q-6 -11 -20 -11h-128q-10 0 -13 6t2 14l107 164l-107 164q-5 8 -2 14t13 6h128q14 0 20 -11z" />
    <glyph glyph-name="cent.tf" horiz-adv-x="650" 
d="M71 350q0 92 52.5 160t141.5 87v100q0 17 16 17h96q17 0 17 -17v-99q76 -16 125.5 -66t59.5 -123v-5q0 -13 -15 -13h-123q-13 0 -18 14q-18 61 -91 61q-49 0 -77.5 -31.5t-28.5 -84.5t28.5 -84.5t77.5 -31.5q73 0 90 60q5 15 19 15h122q16 0 16 -13v-4
q-10 -74 -59.5 -124t-125.5 -66v-99q0 -17 -17 -17h-96q-16 0 -16 17v100q-89 19 -141.5 87t-52.5 160z" />
    <glyph glyph-name="currency.tf" horiz-adv-x="650" 
d="M508 221l58 -59q12 -12 0 -24l-29 -29q-12 -12 -24 0l-63 62q-51 -28 -116 -28q-72 0 -127 36l-70 -70q-12 -12 -24 0l-29 29q-12 12 0 24l69 70q-35 52 -35 117q0 67 36 119l-70 70q-12 12 0 24l29 29q12 12 24 0l71 -71q54 35 126 35q65 0 115 -28l64 64q12 12 24 0
l29 -29q12 -12 0 -24l-60 -59q45 -54 45 -130q0 -74 -43 -128zM334 268q35 0 56 22.5t21 58.5q0 37 -21 59.5t-56 22.5q-34 0 -54.5 -23t-20.5 -59t20 -58.5t55 -22.5z" />
    <glyph glyph-name="dollar.tf" horiz-adv-x="650" 
d="M568 234q0 -78 -47 -126t-133 -60v-55q0 -17 -16 -17h-94q-16 0 -16 17v56q-80 13 -125.5 57.5t-53.5 113.5q-2 18 16 18h115q13 0 18 -15q13 -54 96 -54q92 0 92 59q0 51 -88 64l-65 10q-183 28 -183 173q0 71 46 118t132 60v54q0 17 16 17h94q16 0 16 -17v-55
q78 -13 121.5 -57.5t49.5 -113.5q3 -17 -15 -17h-116q-14 0 -17 16q-9 52 -90 52q-91 0 -91 -57q0 -23 22 -35.5t77 -21.5l65 -11q174 -28 174 -173z" />
    <glyph glyph-name="Euro.tf" horiz-adv-x="650" 
d="M601 208q17 0 15 -20q-18 -96 -81 -148.5t-154 -52.5q-105 0 -174.5 67t-92.5 186h-57q-17 0 -17 17v49q0 17 17 17h48q-1 9 -1 27t1 27h-48q-17 0 -17 17v49q0 17 17 17h57q23 119 92.5 186t174.5 67q92 0 155 -53t80 -151q2 -17 -15 -17h-118q-15 0 -18 15
q-7 33 -30 51t-56 18q-82 0 -108 -116h156q16 0 16 -17v-49q0 -17 -16 -17h-166q-1 -9 -1 -27t1 -27h166q16 0 16 -17v-49q0 -17 -16 -17h-156q26 -116 108 -116q33 0 56 18t30 51q3 15 18 15h118z" />
    <glyph glyph-name="florin.tf" horiz-adv-x="650" 
d="M533 707q14 -3 14 -18v-99q0 -17 -16 -15q-7 1 -21 1q-34 0 -49.5 -12.5t-22.5 -45.5l-14 -74h102q17 0 17 -16v-58q0 -16 -17 -16h-119l-60 -320q-16 -88 -56.5 -124.5t-116.5 -36.5q-35 0 -65 6q-14 3 -14 18v99q0 17 16 15q7 -1 21 -1q35 0 50 12t22 46l53 286h-87
q-17 0 -17 16v58q0 16 17 16h104l20 108q17 88 57.5 124.5t116.5 36.5q35 0 65 -6z" />
    <glyph glyph-name="sterling.tf" horiz-adv-x="650" 
d="M565 138q17 0 17 -16v-106q0 -16 -17 -16h-466q-16 0 -16 16v106q0 16 16 16h45v137h-45q-16 0 -16 16v84q0 16 16 16h45v104q0 102 57 160t162 58q103 0 160 -51.5t61 -156.5q2 -17 -16 -17h-117q-16 0 -18 17q-5 68 -65 68q-69 0 -69 -90v-92h193q16 0 16 -16v-84
q0 -16 -16 -16h-193v-137h266z" />
    <glyph glyph-name="yen.tf" horiz-adv-x="650" 
d="M603 700q9 0 12 -6t-1 -14l-175 -314h115q16 0 16 -17v-55q0 -16 -16 -16h-153v-71h153q16 0 16 -17v-55q0 -16 -16 -16h-153v-103q0 -16 -17 -16h-118q-17 0 -17 16v103h-152q-17 0 -17 16v55q0 17 17 17h152v71h-152q-17 0 -17 16v55q0 17 17 17h114l-175 314
q-4 8 -1 14t12 6h133q13 0 19 -12l125 -241h2l124 241q8 12 19 12h134z" />
    <glyph glyph-name="plus.tf" 
d="M511 384q16 0 16 -17v-100q0 -17 -16 -17h-140v-153q0 -16 -17 -16h-108q-17 0 -17 16v153h-140q-16 0 -16 17v100q0 17 16 17h140v153q0 16 17 16h108q17 0 17 -16v-153h140z" />
    <glyph glyph-name="minus.tf" 
d="M89 250q-16 0 -16 17v100q0 17 16 17h422q16 0 16 -17v-100q0 -17 -16 -17h-422z" />
    <glyph glyph-name="multiply.tf" 
d="M153 104l-66 66q-12 12 0 24l123 123l-123 123q-12 12 0 24l66 66q12 12 24 0l123 -123l123 123q12 12 24 0l66 -66q12 -12 0 -24l-123 -123l123 -123q12 -12 0 -24l-66 -66q-12 -12 -24 0l-123 123l-123 -123q-12 -12 -24 0z" />
    <glyph glyph-name="divide.tf" 
d="M300 432q-39 0 -63 22t-24 58t23.5 58t63.5 22t63.5 -22t23.5 -58t-24 -58t-63 -22zM89 254q-16 0 -16 16v94q0 16 16 16h422q16 0 16 -16v-94q0 -16 -16 -16h-422zM300 42q-40 0 -63.5 22t-23.5 58t24 58t63 22t63 -22t24 -58t-23.5 -58t-63.5 -22z" />
    <glyph glyph-name="equal.tf" 
d="M89 357q-16 0 -16 17v93q0 17 16 17h422q16 0 16 -17v-93q0 -17 -16 -17h-422zM89 145q-16 0 -16 16v94q0 16 16 16h422q16 0 16 -16v-94q0 -16 -16 -16h-422z" />
    <glyph glyph-name="notequal.tf" 
d="M511 357h-141l-36 -86h177q16 0 16 -16v-94q0 -16 -16 -16h-230l-39 -94q-6 -13 -19 -13h-70q-20 0 -12 19l37 88h-89q-16 0 -16 16v94q0 16 16 16h141l36 86h-177q-16 0 -16 17v93q0 17 16 17h230l39 93q6 13 19 13h70q20 0 12 -19l-36 -87h88q16 0 16 -17v-93
q0 -17 -16 -17z" />
    <glyph glyph-name="greater.tf" 
d="M91 88q-18 -7 -18 13v107q0 14 13 18l251 89v4l-251 89q-13 4 -13 18v107q0 20 18 13l423 -158q13 -4 13 -18v-106q0 -14 -13 -18z" />
    <glyph glyph-name="less.tf" 
d="M509 88l-423 158q-13 4 -13 18v106q0 14 13 18l423 158q18 7 18 -13v-107q0 -14 -13 -18l-251 -89v-4l251 -89q13 -4 13 -18v-107q0 -20 -18 -13z" />
    <glyph glyph-name="greaterequal.tf" 
d="M91 178q-18 -5 -18 14v98q0 15 14 19l254 80v4l-254 81q-14 4 -14 18v99q0 19 18 14l423 -144q13 -4 13 -18v-103q0 -15 -13 -19zM89 0q-16 0 -16 16v101q0 16 16 16h422q16 0 16 -16v-101q0 -16 -16 -16h-422z" />
    <glyph glyph-name="lessequal.tf" 
d="M509 178l-423 143q-13 4 -13 19v103q0 14 13 18l423 144q18 5 18 -14v-99q0 -14 -14 -18l-254 -81v-4l254 -80q14 -4 14 -19v-98q0 -19 -18 -14zM89 0q-16 0 -16 16v101q0 16 16 16h422q16 0 16 -16v-101q0 -16 -16 -16h-422z" />
    <glyph glyph-name="plusminus.tf" 
d="M511 469q16 0 16 -16v-100q0 -17 -16 -17h-140v-129q0 -16 -17 -16h-108q-17 0 -17 16v129h-140q-16 0 -16 17v100q0 16 16 16h140v129q0 17 17 17h108q17 0 17 -17v-129h140zM511 133q16 0 16 -16v-101q0 -16 -16 -16h-422q-16 0 -16 16v101q0 16 16 16h422z" />
    <glyph glyph-name="approxequal.tf" 
d="M405 332q-37 0 -105 24t-105 24q-50 0 -103 -31q-8 -5 -13.5 -2t-5.5 13v96q0 13 10 20q51 35 114 35q35 0 104.5 -23.5t102.5 -23.5q55 0 104 30q19 11 19 -10v-96q0 -13 -10 -20q-55 -36 -112 -36zM405 117q-37 0 -105 24t-105 24q-50 0 -103 -31q-8 -6 -13.5 -3
t-5.5 13v98q0 12 10 19q53 36 114 36q35 0 104.5 -24t102.5 -24q55 0 104 30q19 11 19 -10v-96q0 -14 -10 -20q-55 -36 -112 -36z" />
    <glyph glyph-name="asciitilde.tf" 
d="M405 228q-37 0 -105 23.5t-105 23.5q-50 0 -103 -31q-8 -5 -13.5 -2t-5.5 13v97q0 12 10 19q53 36 114 36q35 0 104.5 -24t102.5 -24q55 0 104 30q19 11 19 -10v-96q0 -13 -10 -20q-53 -35 -112 -35z" />
    <glyph glyph-name="logicalnot.tf" 
d="M511 386q16 0 16 -17v-201q0 -16 -16 -16h-107q-17 0 -17 16v85h-298q-16 0 -16 16v100q0 17 16 17h422z" />
    <glyph glyph-name="at.case" horiz-adv-x="820" 
d="M559 499q16 0 16 -16v-159q0 -51 37 -51q24 0 39.5 27t15.5 77q0 107 -67.5 166.5t-175.5 59.5q-119 0 -192 -71.5t-73 -187.5q0 -114 73.5 -181.5t201.5 -67.5q81 0 165 31q19 6 19 -13v-75q0 -12 -9 -17q-76 -34 -181 -34q-173 0 -278.5 98t-105.5 258q0 164 108.5 267
t269.5 103q153 0 256 -91t103 -232q0 -94 -47.5 -154t-123.5 -60q-41 0 -71.5 17.5t-44.5 46.5q-24 -60 -106 -60q-67 0 -109.5 45.5t-42.5 119.5q0 73 43 119.5t109 46.5t85 -42h4v14q0 16 16 16h66zM412 284q26 0 41.5 16.5t15.5 44.5t-15.5 44.5t-41.5 16.5t-41.5 -16.5
t-15.5 -44.5t15.5 -44.5t41.5 -16.5z" />
    </font>
</defs>
</svg>
