<?xml version="1.0" standalone="no"?>
<!DOCTYPE svg PUBLIC "-//W3C//DTD SVG 1.1//EN" "http://www.w3.org/Graphics/SVG/1.1/DTD/svg11.dtd" >
<svg xmlns="http://www.w3.org/2000/svg" xmlns:xlink="http://www.w3.org/1999/xlink" version="1.1">
<metadata>
Created by FontForge 20170731 at Tue Jun 16 09:16:13 2020
 By Aleksey,,,
Copyright (c) 2018 by Christoph York. All rights reserved. Modification of this file requires prior written permission from Brink Type.
</metadata>
<defs>
<font id="BROmny-Medium" horiz-adv-x="600" >
  <font-face 
    font-family="BROmny-Medium"
    font-weight="400"
    font-stretch="normal"
    units-per-em="1000"
    panose-1="0 0 6 0 0 0 0 0 0 0"
    ascent="800"
    descent="-200"
    x-height="469"
    cap-height="700"
    bbox="-473 -255 1238 999"
    underline-thickness="50"
    underline-position="-200"
    unicode-range="U+000D-2B51"
  />
<missing-glyph horiz-adv-x="753" 
d="M108 700h538q19 0 19 -19v-662q0 -19 -19 -19h-538q-19 0 -19 19v662q0 19 19 19zM259 449h33q17 0 20 18q12 57 75 57q60 0 60 -52q0 -27 -32 -54l-31 -26q-32 -27 -42 -45.5t-10 -52.5v-14q0 -19 19 -19h32q19 0 19 19v12q0 20 5 30.5t23 25.5l30 25q58 48 58 101
t-36 84.5t-97 31.5q-62 0 -99.5 -32t-45.5 -89v-3q0 -17 19 -17zM317 155q0 -22 14 -36t35 -14q23 0 37 14t14 36t-14 36t-37 14q-21 0 -35 -14t-14 -36z" />
    <glyph glyph-name=".notdef" horiz-adv-x="753" 
d="M108 700h538q19 0 19 -19v-662q0 -19 -19 -19h-538q-19 0 -19 19v662q0 19 19 19zM259 449h33q17 0 20 18q12 57 75 57q60 0 60 -52q0 -27 -32 -54l-31 -26q-32 -27 -42 -45.5t-10 -52.5v-14q0 -19 19 -19h32q19 0 19 19v12q0 20 5 30.5t23 25.5l30 25q58 48 58 101
t-36 84.5t-97 31.5q-62 0 -99.5 -32t-45.5 -89v-3q0 -17 19 -17zM317 155q0 -22 14 -36t35 -14q23 0 37 14t14 36t-14 36t-37 14q-21 0 -35 -14t-14 -36z" />
    <glyph glyph-name=".null" horiz-adv-x="0" 
 />
    <glyph glyph-name="uni000D" horiz-adv-x="333" 
 />
    <glyph glyph-name="uni000D.1" unicode="&#xd;" horiz-adv-x="246" 
 />
    <glyph glyph-name="space" unicode=" " horiz-adv-x="246" 
 />
    <glyph glyph-name="exclam" unicode="!" horiz-adv-x="289" 
d="M89 681q0 19 18 19h75q18 0 18 -19l-11 -439q0 -19 -19 -19h-50q-19 0 -19 19zM75 61q0 31 19.5 50.5t50.5 19.5t50.5 -19.5t19.5 -50.5t-19 -50q-20 -20 -51 -20t-50.5 19.5t-19.5 50.5z" />
    <glyph glyph-name="quotedbl" unicode="&#x22;" horiz-adv-x="437" 
d="M85 711h73q19 0 19 -17v-3l-14 -240q-1 -18 -19 -18h-45q-17 0 -19 18l-14 240v3q0 17 19 17zM279 711h73q19 0 19 -17v-3l-14 -240q-1 -18 -19 -18h-45q-17 0 -19 18l-14 240v3q0 17 19 17z" />
    <glyph glyph-name="numbersign" unicode="#" horiz-adv-x="778" 
d="M87 210v42q0 19 19 19h107v158h-107q-19 0 -19 19v42q0 19 19 19h107v138q0 19 19 19h50q19 0 19 -19v-138h175v138q0 19 19 19h51q19 0 19 -19v-138h107q19 0 19 -19v-42q0 -19 -19 -19h-107v-158h107q19 0 19 -19v-42q0 -19 -19 -19h-107v-138q0 -19 -19 -19h-51
q-19 0 -19 19v138h-175v-138q0 -19 -19 -19h-50q-19 0 -19 19v138h-107q-19 0 -19 19zM476 271v158h-175v-158h175z" />
    <glyph glyph-name="dollar" unicode="$" horiz-adv-x="562" 
d="M72 224h63q15 0 20 -17q16 -61 92 -73v182l-15 3q-175 33 -175 167q0 71 48 116.5t137 53.5v47q0 19 19 19h42q19 0 19 -19v-49q78 -9 123.5 -50.5t53.5 -110.5v-5q0 -15 -18 -15h-61q-17 0 -20 18q-10 64 -84 76v-172l33 -6q161 -31 161 -165q0 -77 -50 -123.5
t-138 -54.5v-49q0 -19 -19 -19h-42q-19 0 -19 19v49q-81 9 -129 50t-59 108v5q0 15 18 15zM316 302v-169q95 11 95 86q0 65 -95 83zM156 487q0 -31 20.5 -48.5t70.5 -29.5v160q-91 -10 -91 -82z" />
    <glyph glyph-name="percent" unicode="%" horiz-adv-x="865" 
d="M518 298q52 52 129 52t128.5 -52t51.5 -129t-51 -128q-52 -52 -129 -52t-129 51.5t-52 128.5t52 129zM38 531q0 77 52 128.5t128 51.5q77 0 129 -52t52 -128q0 -77 -52 -129t-129 -52t-128.5 52t-51.5 129zM168 23l439 665q9 12 23 12h54q11 0 13.5 -4.5t2.5 -7.5
q0 -5 -4 -11l-438 -665q-9 -12 -23 -12h-54q-11 0 -14 4.5t-3 7.5q0 5 4 11zM122 531q0 -46 26.5 -74t69.5 -28q44 0 70 28t26 74t-26.5 73.5t-69.5 27.5t-69.5 -27.5t-26.5 -73.5zM551 169q0 -46 27 -73q26 -28 69 -28t69.5 27.5t26.5 73.5t-26.5 74t-69.5 28
q-44 0 -70 -28t-26 -74z" />
    <glyph glyph-name="ampersand" unicode="&#x26;" horiz-adv-x="681" 
d="M202 376l7 4q-45 52 -64.5 90.5t-19.5 77.5q0 70 51 116.5t135 46.5q82 0 133.5 -44.5t51.5 -114.5q0 -105 -121 -175l-29 -16l132 -151q22 50 29 113q3 18 20 18h55q17 0 17 -23v-7q-15 -103 -56 -175l98 -112q6 -7 6 -12q0 -3 -2.5 -7.5t-14.5 -4.5h-69q-14 0 -24 10
l-49 56q-81 -77 -201 -77q-102 0 -166 53t-64 136q0 114 145 198zM195 107q35 -28 93 -28q81 0 138 54l-162 184l-6 -3q-98 -58 -98 -130q0 -49 35 -77zM274 442l18 -21l37 22q72 41 72 99q0 38 -25 60q-26 22 -65 22t-64.5 -22t-25.5 -55q0 -43 53 -105z" />
    <glyph glyph-name="quotesingle" unicode="'" horiz-adv-x="243" 
d="M85 711h73q19 0 19 -17v-3l-14 -240q-1 -18 -19 -18h-45q-17 0 -19 18l-14 240v3q0 17 19 17z" />
    <glyph glyph-name="parenleft" unicode="(" horiz-adv-x="334" 
d="M67 326q0 118 37.5 232t106.5 202q7 8 15 8q6 0 13 -5l43 -30q8 -6 8 -13q0 -6 -5 -13q-54 -73 -87 -173t-33 -208q0 -107 33 -207.5t87 -173.5q5 -6 5 -12q0 -7 -8 -14l-43 -29q-7 -5 -14 -5t-14 7q-69 88 -106.5 202t-37.5 232z" />
    <glyph glyph-name="parenright" unicode=")" horiz-adv-x="334" 
d="M49 -55q54 73 87 173.5t33 207.5q0 108 -33 208t-87 173q-5 7 -5 13q0 7 8 13l43 30q7 5 13 5q8 0 15 -8q69 -88 106.5 -202t37.5 -232t-37.5 -232t-106.5 -202q-7 -7 -14 -7t-14 5l-43 29q-8 7 -8 14q0 6 5 12z" />
    <glyph glyph-name="asterisk" unicode="*" horiz-adv-x="529" 
d="M73 556l14 42q4 13 15 13q4 0 9 -2l118 -42l-4 125v2q0 17 18 17h44q18 0 18 -19l-5 -125l118 42q5 2 9 2q11 0 15 -13l14 -42q1 -4 1 -8q0 -11 -14 -16l-119 -34l77 -99q6 -7 6 -13q0 -7 -10 -13l-36 -26q-7 -5 -12 -5q-8 0 -13 10l-71 104l-71 -104q-6 -9 -14 -9
q-5 0 -12 4l-36 26q-9 6 -9 13q0 6 6 13l76 100l-119 33q-14 5 -14 17q0 3 1 7z" />
    <glyph glyph-name="plus" unicode="+" 
d="M78 291v52q0 19 19 19h155v167q0 19 19 19h58q19 0 19 -19v-167h155q19 0 19 -19v-52q0 -19 -19 -19h-155v-167q0 -19 -19 -19h-58q-19 0 -19 19v167h-155q-19 0 -19 19z" />
    <glyph glyph-name="comma" unicode="," horiz-adv-x="254" 
d="M44 -130l45 247q3 18 20 18h64q17 0 17 -14q0 -3 -1 -7l-65 -249q-5 -16 -21 -16h-42q-17 0 -17 16v5z" />
    <glyph glyph-name="hyphen" unicode="-" horiz-adv-x="393" 
d="M69 318h254q19 0 19 -19v-53q0 -19 -19 -19h-254q-19 0 -19 19v53q0 19 19 19z" />
    <glyph glyph-name="period" unicode="." horiz-adv-x="252" 
d="M56 61q0 31 19 50.5t51 19.5t51 -19.5t19 -50.5t-19 -50q-19 -20 -51 -20t-51 19.5t-19 50.5z" />
    <glyph glyph-name="slash" unicode="/" horiz-adv-x="471" 
d="M20 -55l333 752q6 14 23 14h61q17 0 17 -12q0 -4 -2 -10l-334 -752q-6 -14 -23 -14h-60q-11 0 -14.5 4.5t-3.5 8.5t3 9z" />
    <glyph glyph-name="zero" unicode="0" horiz-adv-x="674" 
d="M56 350q0 168 76.5 264.5t204.5 96.5t204.5 -96.5t76.5 -264.5t-76 -264q-77 -97 -205 -97t-204.5 96.5t-76.5 264.5zM162 350q0 -131 46 -198q45 -67 129 -67t129.5 67t45.5 198t-45.5 198t-129.5 67t-129.5 -67t-45.5 -198z" />
    <glyph glyph-name="one" unicode="1" horiz-adv-x="393" 
d="M42 526v63q0 16 13 22l142 82q11 7 24 7h56q19 0 19 -19v-662q0 -19 -19 -19h-65q-19 0 -19 19v567l-128 -73q-6 -4 -11 -4q-3 0 -7.5 3t-4.5 14z" />
    <glyph glyph-name="two" unicode="2" horiz-adv-x="577" 
d="M92 200q40 62 137 115l73 40q65 36 93.5 72.5t28.5 79.5q0 49 -33.5 78.5t-90.5 29.5q-59 0 -95.5 -32.5t-43.5 -90.5q-2 -19 -19 -19h-69q-19 0 -19 17v3q8 101 73.5 159.5t170.5 58.5q104 0 167.5 -56.5t63.5 -148.5q0 -67 -38.5 -120t-124.5 -100l-73 -41
q-71 -40 -100.5 -73t-32.5 -76h350q19 0 19 -19v-58q0 -19 -19 -19h-440q-19 0 -19 19v32q0 87 41 149z" />
    <glyph glyph-name="three" unicode="3" horiz-adv-x="594" 
d="M68 218h68q17 0 20 -18q8 -55 45.5 -85t98.5 -30q64 0 102.5 31.5t38.5 81.5q0 51 -39.5 81t-111.5 30h-28q-19 0 -19 19v56q0 19 19 19h24q66 0 104 30t38 79q0 47 -34.5 75t-93.5 28t-94 -30t-42 -86q-2 -18 -19 -18h-68q-19 0 -19 17v3q7 98 72 154t170 56
q106 0 170 -54t64 -139q0 -58 -31.5 -100t-91.5 -59v-2q65 -13 101 -57t36 -107q0 -88 -68 -146t-181 -58q-109 0 -175.5 55.5t-74.5 153.5v2q0 18 19 18z" />
    <glyph glyph-name="four" unicode="4" horiz-adv-x="614" 
d="M29 170v52q0 13 7 24l329 443q8 11 23 11h82q19 0 19 -19v-438h77q19 0 19 -19v-54q0 -19 -19 -19h-77v-132q0 -19 -19 -19h-62q-19 0 -19 19v132h-341q-19 0 -19 19zM389 243v329h-2l-244 -329h246z" />
    <glyph glyph-name="five" unicode="5" horiz-adv-x="601" 
d="M71 204h68q15 0 20 -18q10 -45 49.5 -73.5t94.5 -28.5q67 0 109.5 43t42.5 111q0 63 -38 101t-101 38q-85 0 -136 -59q-8 -11 -23 -11h-75q-17 0 -17 15v5l46 355q1 18 20 18h370q19 0 19 -19v-57q0 -19 -19 -19h-304l-23 -188q63 49 152 49q102 0 168 -63.5t66 -167.5
q0 -108 -71.5 -177t-185.5 -69q-101 0 -170 53.5t-80 141.5v3q0 17 18 17z" />
    <glyph glyph-name="six" unicode="6" horiz-adv-x="624" 
d="M130 612q74 99 208 99q89 0 148.5 -42.5t76.5 -116.5q1 -4 1 -7q0 -14 -18 -14h-67q-16 0 -21 16q-24 70 -119 70q-164 0 -178 -241h2q60 88 181 88q103 0 171 -67t68 -169q0 -105 -71.5 -172t-186.5 -67q-114 0 -186 70q-83 85 -83 271q0 183 74 282zM215 122
q41 -40 110 -40t110.5 39.5t41.5 106.5q0 66 -41.5 105.5t-110.5 39.5t-110.5 -39.5t-41.5 -105.5t42 -106z" />
    <glyph glyph-name="seven" unicode="7" horiz-adv-x="538" 
d="M32 681q0 19 19 19h436q19 0 19 -19v-56q0 -14 -5 -24l-275 -587q-7 -14 -22 -14h-68q-17 0 -17 13q0 4 2 10l274 580h-344q-19 0 -19 19v59z" />
    <glyph glyph-name="eight" unicode="8" horiz-adv-x="630" 
d="M50 193q0 59 33.5 104.5t97.5 67.5v2q-54 20 -82 61.5t-28 94.5q0 82 64.5 135t179.5 53t179.5 -53t64.5 -135q0 -53 -28 -94.5t-82 -61.5v-2q64 -22 97.5 -67.5t33.5 -104.5q0 -89 -72 -146q-72 -58 -193 -58t-193 57.5t-72 146.5zM199 115q42 -33 116 -33t116 33t42 86
t-42 85t-116 32t-116.5 -32t-42.5 -85t43 -86zM175 512q0 -49 36.5 -79t103.5 -30q66 0 103 30t37 79q0 48 -37 78t-103 30q-67 0 -103.5 -29.5t-36.5 -78.5z" />
    <glyph glyph-name="nine" unicode="9" horiz-adv-x="624" 
d="M46 473q0 104 71 171t185 67q117 0 184 -73q82 -84 82 -270q0 -180 -73.5 -279.5t-208.5 -99.5q-90 0 -149.5 42.5t-76.5 116.5q-1 3 -1 5q0 6 4.5 11t13.5 5h68q15 0 21 -16q22 -70 120 -70q165 0 178 244h-2q-27 -41 -75.5 -64t-105.5 -23q-103 0 -169 66t-66 167z
M192 369q40 -39 107 -39q68 0 110.5 40t42.5 104t-41.5 104t-108.5 40t-109 -40.5t-42 -105.5q0 -64 41 -103z" />
    <glyph glyph-name="colon" unicode=":" horiz-adv-x="272" 
d="M66 394q0 31 19.5 50.5t50.5 19.5t50.5 -19.5t19.5 -50.5q0 -32 -19 -51t-51 -19t-51 19t-19 51zM66 61q0 31 19 50.5t51 19.5t51 -19.5t19 -50.5t-19 -50q-19 -20 -51 -20t-51 19.5t-19 50.5z" />
    <glyph glyph-name="semicolon" unicode=";" horiz-adv-x="279" 
d="M48 -130l45 247q3 18 20 18h64q17 0 17 -14q0 -3 -1 -7l-65 -249q-5 -16 -21 -16h-42q-17 0 -17 16v5zM73 394q0 31 19.5 50.5t50.5 19.5t50.5 -19.5t19.5 -50.5q0 -32 -19 -51q-20 -19 -51 -19t-50.5 19t-19.5 51z" />
    <glyph glyph-name="less" unicode="&#x3c;" 
d="M93 370l407 159q6 2 10 2q12 0 12 -17v-59q0 -15 -15 -22l-308 -115v-2l308 -115q15 -7 15 -22v-59q0 -17 -12 -17q-4 0 -10 2l-407 159q-15 7 -15 22v62q0 15 15 22z" />
    <glyph glyph-name="equal" unicode="=" 
d="M97 258h406q19 0 19 -19v-50q0 -19 -19 -19h-406q-19 0 -19 19v50q0 19 19 19zM78 443q0 19 19 19h406q19 0 19 -19v-50q0 -19 -19 -19h-406q-19 0 -19 19v50z" />
    <glyph glyph-name="greater" unicode="&#x3e;" 
d="M78 179q0 15 15 22l308 115v2l-308 115q-15 7 -15 22v59q0 17 12 17q4 0 10 -2l407 -159q15 -7 15 -22v-62q0 -15 -15 -22l-407 -159q-6 -2 -10 -2q-12 0 -12 17v59z" />
    <glyph glyph-name="question" unicode="?" horiz-adv-x="491" 
d="M36 526q9 86 66 135.5t150 49.5q91 0 144 -46.5t53 -124.5q0 -41 -19.5 -75.5t-68.5 -75.5l-46 -39q-26 -21 -33.5 -38t-7.5 -48v-25q0 -19 -19 -19h-62q-19 0 -19 19v28q0 49 15 77.5t62 68.5l47 40q51 42 51 85q0 39 -24.5 59.5t-69.5 20.5q-49 0 -80 -24.5t-39 -69.5
q-4 -18 -21 -18h-61q-18 0 -18 15v5zM154 61q0 31 19 50.5t51 19.5t51 -19.5t19 -50.5t-19 -50q-19 -20 -51 -20t-51 19.5t-19 50.5z" />
    <glyph glyph-name="at" unicode="@" horiz-adv-x="963" 
d="M56 221q0 189 127 312t312 123q174 0 296 -110t122 -279q0 -110 -52.5 -179t-132.5 -69q-45 0 -79 23t-47 65q-15 -41 -52.5 -63t-85.5 -22q-79 0 -131.5 56t-52.5 144t52.5 144.5t131.5 56.5q44 0 76 -18t45 -52h4v39q0 19 19 19h43q19 0 19 -19v-216q0 -82 59 -82
q42 0 68.5 43.5t26.5 119.5q0 144 -93 229t-234 85q-153 0 -251.5 -97.5t-98.5 -250.5t99.5 -245t263.5 -92q102 0 201 42q6 2 10 2q12 0 12 -17v-44q0 -15 -11 -21q-94 -46 -218 -46q-197 0 -322.5 116.5t-125.5 302.5zM374 222q0 -55 30 -87q29 -32 76 -32t76 32t29 87
t-29 87.5t-76 32.5t-76.5 -32.5t-29.5 -87.5z" />
    <glyph glyph-name="A" unicode="A" horiz-adv-x="713" 
d="M24 22l274 664q6 14 22 14h72q18 0 22 -14l275 -664q2 -6 2 -10q0 -12 -17 -12h-71q-17 0 -21 14l-55 137h-341l-55 -137q-6 -14 -22 -14h-70q-17 0 -17 12q0 4 2 10zM489 246l-131 328h-3l-131 -328h265z" />
    <glyph glyph-name="B" unicode="B" horiz-adv-x="683" 
d="M108 700h236q114 0 176 -48t62 -137q0 -56 -24 -95t-68 -55v-2q70 -10 107 -54t37 -116q0 -94 -64.5 -143.5t-184.5 -49.5h-277q-19 0 -19 19v662q0 19 19 19zM375 91q80 0 115 26.5t35 83.5q0 58 -35 84.5t-115 26.5h-181v-221h181zM194 609v-207h142q138 0 138 103
q0 53 -33 78.5t-105 25.5h-142z" />
    <glyph glyph-name="C" unicode="C" horiz-adv-x="805" 
d="M158 607q102 104 258 104q123 0 213 -67.5t116 -184.5q1 -4 1 -7q0 -14 -17 -14h-73q-16 0 -21 17q-19 73 -77.5 114.5t-141.5 41.5q-112 0 -181.5 -72.5t-69.5 -188.5t69.5 -188.5t181.5 -72.5q83 0 141.5 41.5t77.5 114.5q5 17 21 17h73q17 0 17 -14q0 -4 -1 -8
q-26 -117 -116.5 -184t-212.5 -67q-156 0 -258 104.5t-102 256.5t102 257z" />
    <glyph glyph-name="D" unicode="D" horiz-adv-x="728" 
d="M89 19v662q0 19 19 19h202q161 0 261.5 -98t100.5 -252t-100.5 -252t-261.5 -98h-202q-19 0 -19 19zM307 99q119 0 187 68t68 183t-68 183t-187 68h-113v-502h113z" />
    <glyph glyph-name="E" unicode="E" horiz-adv-x="629" 
d="M108 700h442q19 0 19 -19v-60q0 -19 -19 -19h-356v-204h282q19 0 19 -19v-58q0 -19 -19 -19h-282v-204h360q19 0 19 -19v-60q0 -19 -19 -19h-446q-19 0 -19 19v662q0 19 19 19z" />
    <glyph glyph-name="F" unicode="F" horiz-adv-x="609" 
d="M89 19v662q0 19 19 19h438q19 0 19 -19v-60q0 -19 -19 -19h-352v-216h304q19 0 19 -19v-60q0 -19 -19 -19h-304v-269q0 -19 -19 -19h-67q-19 0 -19 19z" />
    <glyph glyph-name="G" unicode="G" horiz-adv-x="816" 
d="M158 608q102 103 258 103q117 0 205.5 -60.5t117.5 -158.5q1 -4 1 -7q0 -4 -3.5 -9t-13.5 -5h-75q-17 0 -21 16q-21 57 -78 90.5t-133 33.5q-113 0 -182 -73t-69 -188q0 -118 70.5 -189.5t183.5 -71.5q99 0 164 56.5t72 153.5h-207q-19 0 -19 19v50q0 19 19 19h293
q19 0 19 -19v-33q0 -155 -96 -250.5t-247 -95.5q-157 0 -259 103t-102 258q0 154 102 258z" />
    <glyph glyph-name="H" unicode="H" horiz-adv-x="744" 
d="M108 700h67q19 0 19 -19v-292h356v292q0 19 19 19h68q19 0 19 -19v-662q0 -19 -19 -19h-68q-19 0 -19 19v271h-356v-271q0 -19 -19 -19h-67q-19 0 -19 19v662q0 19 19 19z" />
    <glyph glyph-name="I" unicode="I" horiz-adv-x="283" 
d="M108 700h67q19 0 19 -19v-662q0 -19 -19 -19h-67q-19 0 -19 19v662q0 19 19 19z" />
    <glyph glyph-name="J" unicode="J" horiz-adv-x="634" 
d="M54 235v69q0 19 19 19h69q19 0 19 -19v-57q0 -158 142 -158q145 0 145 158v355h-275q-19 0 -19 19v60q0 19 19 19h362q19 0 19 -19v-442q0 -119 -65 -184.5t-185 -65.5q-118 0 -184 64t-66 182z" />
    <glyph glyph-name="K" unicode="K" horiz-adv-x="685" 
d="M89 19v662q0 19 19 19h67q19 0 19 -19v-327h69q18 0 27 -1l214 335q9 12 24 12h83q11 0 14 -4.5t3 -7.5q0 -5 -4 -11l-222 -344q196 -64 236 -312v-5q0 -16 -18 -16h-77q-17 0 -20 17q-23 127 -88.5 181.5t-180.5 54.5h-60v-234q0 -19 -19 -19h-67q-19 0 -19 19z" />
    <glyph glyph-name="L" unicode="L" horiz-adv-x="576" 
d="M108 700h67q19 0 19 -19v-582h330q19 0 19 -19v-61q0 -19 -19 -19h-416q-19 0 -19 19v662q0 19 19 19z" />
    <glyph glyph-name="M" unicode="M" horiz-adv-x="914" 
d="M108 700h76q16 0 23 -13l249 -402h2l249 402q7 13 23 13h77q19 0 19 -19v-662q0 -19 -19 -19h-68q-19 0 -19 19v501h-1l-213 -340q-8 -13 -23 -13h-52q-15 0 -23 13l-213 340h-1v-501q0 -19 -19 -19h-67q-19 0 -19 19v662q0 19 19 19z" />
    <glyph glyph-name="N" unicode="N" horiz-adv-x="771" 
d="M108 700h67q15 0 23 -11l377 -514h2v506q0 19 19 19h67q19 0 19 -19v-662q0 -19 -19 -19h-68q-15 0 -23 11l-377 513h-1v-505q0 -19 -19 -19h-67q-19 0 -19 19v662q0 19 19 19z" />
    <glyph glyph-name="O" unicode="O" horiz-adv-x="830" 
d="M56 350q0 152 104 256.5t255 104.5t255 -104.5t104 -256.5t-104 -256q-104 -105 -255 -105t-255 104.5t-104 256.5zM165 350q0 -113 70 -187t180 -74t179.5 74t69.5 187t-69.5 187t-179.5 74t-180 -74t-70 -187z" />
    <glyph glyph-name="P" unicode="P" horiz-adv-x="664" 
d="M89 19v662q0 19 19 19h259q121 0 188.5 -61.5t67.5 -171.5t-67.5 -171.5t-188.5 -61.5h-173v-215q0 -19 -19 -19h-67q-19 0 -19 19zM359 332q154 0 154 135t-154 135h-165v-270h165z" />
    <glyph glyph-name="Q" unicode="Q" horiz-adv-x="830" 
d="M160 607q104 104 255 104t255 -104.5t104 -256.5q0 -80 -32 -151t-88 -121l92 -118q5 -6 5 -12q0 -8 -9 -15l-48 -35q-6 -6 -12 -6q-8 0 -15 9l-95 123q-72 -35 -157 -35q-151 0 -255 104.5t-104 256.5t104 257zM165 350q0 -113 70 -187t180 -74q47 0 92 16l-98 125
q-5 6 -5 12q0 8 9 14l48 36q7 6 13 6q7 0 13 -9l102 -131q75 73 75 192q0 113 -69.5 187t-179.5 74t-180 -74t-70 -187z" />
    <glyph glyph-name="R" unicode="R" horiz-adv-x="690" 
d="M89 681q0 19 19 19h257q120 0 188 -61t68 -166q0 -75 -36.5 -129.5t-103.5 -79.5q110 -60 142 -243v-5q0 -16 -18 -16h-76q-17 0 -20 17q-23 120 -81 173.5t-160 53.5h-74v-225q0 -19 -19 -19h-67q-19 0 -19 19v662zM194 343h163q154 0 154 130q0 129 -154 129h-163v-259
z" />
    <glyph glyph-name="S" unicode="S" horiz-adv-x="626" 
d="M54 197q5 5 14 5h71q15 0 20 -17q22 -100 159 -100q73 0 113.5 29.5t40.5 79.5q0 83 -114 103l-105 19q-198 37 -198 194q0 92 66 146.5t188 54.5q236 0 260 -200v-3q0 -17 -18 -17h-69q-17 0 -20 18q-7 56 -45 81t-109 25q-145 0 -145 -102q0 -43 29 -67.5t103 -38.5
l105 -19q180 -32 180 -189q0 -98 -69.5 -154t-191.5 -56q-115 0 -184.5 50.5t-83.5 142.5q-1 3 -1 5q0 6 4 10z" />
    <glyph glyph-name="T" unicode="T" horiz-adv-x="595" 
d="M27 681q0 19 19 19h503q19 0 19 -19v-61q0 -19 -19 -19h-199v-582q0 -19 -19 -19h-67q-19 0 -19 19v582h-199q-19 0 -19 19v61z" />
    <glyph glyph-name="U" unicode="U" horiz-adv-x="725" 
d="M99 700h68q19 0 19 -19v-388q0 -202 177 -202q176 0 176 202v388q0 19 19 19h68q19 0 19 -19v-399q0 -139 -75 -216q-76 -77 -207 -77t-207 77t-76 216v399q0 19 19 19z" />
    <glyph glyph-name="V" unicode="V" horiz-adv-x="685" 
d="M39 700h71q16 0 22 -15l209 -547h3l209 547q6 15 22 15h71q17 0 17 -14q0 -3 -1 -8l-263 -663q-5 -15 -21 -15h-71q-17 0 -21 15l-263 663q-1 5 -1 8q0 14 17 14z" />
    <glyph glyph-name="W" unicode="W" horiz-adv-x="1051" 
d="M44 700h72q16 0 21 -15l166 -526h3l166 526q4 15 21 15h65q16 0 21 -15l166 -526h3l166 526q4 15 21 15h71q17 0 17 -14q0 -3 -1 -8l-217 -663q-5 -15 -21 -15h-69q-16 0 -21 15l-167 518h-3l-167 -518q-5 -15 -21 -15h-70q-15 0 -21 15l-216 663q-2 6 -2 10q0 12 17 12z
" />
    <glyph glyph-name="X" unicode="X" horiz-adv-x="655" 
d="M36 23l228 344l-217 310q-4 6 -4 11q0 3 3 7.5t14 4.5h77q15 0 22 -12l167 -245h3l166 245q9 12 23 12h77q11 0 14 -4.5t3 -7.5q0 -5 -4 -11l-217 -310l228 -344q4 -8 4 -13q0 -10 -16 -10h-79q-16 0 -23 12l-176 267h-3l-176 -267q-8 -12 -23 -12h-80q-11 0 -13.5 4
t-2.5 7q0 5 5 12z" />
    <glyph glyph-name="Y" unicode="Y" horiz-adv-x="663" 
d="M22 694q4 6 15 6h77q14 0 23 -13l194 -308h1l194 308q7 13 22 13h77q11 0 14 -4.5t3 -7.5q0 -5 -4 -11l-253 -396v-262q0 -19 -19 -19h-69q-19 0 -19 19v262l-253 396q-4 6 -4 12q0 2 1 5z" />
    <glyph glyph-name="Z" unicode="Z" horiz-adv-x="625" 
d="M59 90l372 512h-354q-19 0 -19 19v60q0 19 19 19h471q19 0 19 -19v-47q0 -13 -8 -24l-372 -512h368q19 0 19 -19v-60q0 -19 -19 -19h-485q-19 0 -19 19v47q0 13 8 24z" />
    <glyph glyph-name="bracketleft" unicode="[" horiz-adv-x="373" 
d="M89 749q0 19 19 19h203q19 0 19 -19v-48q0 -19 -19 -19h-126v-710h126q19 0 19 -19v-48q0 -19 -19 -19h-203q-19 0 -19 19v844z" />
    <glyph glyph-name="backslash" unicode="\" horiz-adv-x="472" 
d="M20 705q4 6 15 6h60q17 0 23 -14l334 -752q2 -6 2 -10q0 -12 -17 -12h-61q-17 0 -23 14l-333 752q-2 5 -2 9t2 7z" />
    <glyph glyph-name="bracketright" unicode="]" horiz-adv-x="373" 
d="M43 749q0 19 19 19h203q19 0 19 -19v-844q0 -19 -19 -19h-203q-19 0 -19 19v48q0 19 19 19h126v710h-126q-19 0 -19 19v48z" />
    <glyph glyph-name="asciicircum" unicode="^" horiz-adv-x="586" 
d="M49 363l185 324q8 13 23 13h72q15 0 23 -13l185 -324q4 -6 4 -11q0 -3 -3 -7.5t-14 -4.5h-65q-14 0 -22 13l-143 249h-2l-143 -249q-8 -13 -22 -13h-65q-11 0 -14 4.5t-3 7.5q0 5 4 11z" />
    <glyph glyph-name="underscore" unicode="_" horiz-adv-x="456" 
d="M29 -52h398q19 0 19 -19v-45q0 -19 -19 -19h-398q-19 0 -19 19v45q0 19 19 19z" />
    <glyph glyph-name="grave" unicode="`" 
d="M136 686q3 7 15 7h77q13 0 23 -13l79 -116q4 -6 4 -11q0 -3 -2.5 -7.5t-14.5 -4.5h-60q-15 0 -23 11l-94 118q-5 6 -5 12q0 2 1 4z" />
    <glyph glyph-name="a" unicode="a" horiz-adv-x="613" 
d="M113 410q67 70 165 70q53 0 96 -21.5t64 -60.5h2v52q0 19 19 19h61q19 0 19 -19v-431q0 -19 -19 -19h-61q-19 0 -19 19v52h-2q-21 -38 -64 -60t-96 -22q-98 0 -165 70.5t-67 175.5q0 104 67 175zM189 124q40 -44 106 -44t106.5 44t40.5 111t-40.5 111t-106.5 44t-106 -44
q-41 -44 -41 -111t41 -111z" />
    <glyph glyph-name="b" unicode="b" horiz-adv-x="613" 
d="M74 19v662q0 19 19 19h62q19 0 19 -19v-283h4q20 38 63 60t95 22q98 0 164.5 -70.5t66.5 -174.5q0 -105 -67 -175.5t-165 -70.5q-53 0 -96 22t-63 60h-4v-52q0 -19 -19 -19h-60q-19 0 -19 19zM212 124q40 -44 106 -44t106.5 44t40.5 111t-40.5 111t-106.5 44t-106.5 -44
t-40.5 -111t41 -111z" />
    <glyph glyph-name="c" unicode="c" horiz-adv-x="569" 
d="M115 410q68 70 177 70q89 0 151.5 -46.5t77.5 -122.5v-5q0 -15 -18 -15h-65q-16 0 -21 16q-13 40 -45.5 61.5t-78.5 21.5q-66 0 -105.5 -43.5t-39.5 -111.5q0 -69 39.5 -112t105.5 -43q45 0 77.5 21t45.5 60q5 17 21 17h65q9 0 14 -4.5t5 -9.5q0 -3 -1 -5
q-14 -76 -76.5 -123t-151.5 -47q-109 0 -177.5 70.5t-68.5 175.5t69 175z" />
    <glyph glyph-name="d" unicode="d" horiz-adv-x="613" 
d="M113 410q67 70 164 70q52 0 95 -22t63 -60h4v283q0 19 19 19h62q19 0 19 -19v-662q0 -19 -19 -19h-60q-19 0 -19 19v52h-3q-21 -38 -64 -60t-96 -22q-98 0 -165 70.5t-67 175.5q0 104 67 175zM148 235q0 -67 40.5 -111t106.5 -44t106.5 44t40.5 111t-40.5 111t-106.5 44
t-106 -44q-41 -44 -41 -111z" />
    <glyph glyph-name="e" unicode="e" horiz-adv-x="574" 
d="M114 412q67 68 176 68q106 0 172.5 -66.5t66.5 -176.5v-11q0 -23 -23 -23h-359q7 -65 45 -98t102 -33q46 0 78.5 15.5t45.5 41.5q8 15 22 15h58q10 0 14.5 -3.5t4.5 -7.5q0 -2 -1 -4q-20 -62 -78.5 -101t-144.5 -39q-112 0 -179.5 68t-67.5 177t68 178zM148 276h279
q-18 122 -137 122q-58 0 -95 -31.5t-47 -90.5z" />
    <glyph glyph-name="f" unicode="f" horiz-adv-x="399" 
d="M39 469h85v38q0 205 182 205q38 0 68 -9q15 -4 15 -21v-47q0 -18 -13 -18q-3 0 -7 1q-21 4 -44 4q-55 0 -78 -25.5t-23 -89.5v-38h140q19 0 19 -19v-47q0 -19 -19 -19h-140v-365q0 -19 -19 -19h-62q-19 0 -19 19v365h-85q-19 0 -19 19v47q0 19 19 19z" />
    <glyph glyph-name="g" unicode="g" horiz-adv-x="613" 
d="M114 410q67 70 164 70q53 0 96 -22t64 -60h3v52q0 19 19 19h60q19 0 19 -19v-441q0 -110 -66.5 -173t-183.5 -63q-95 0 -156 42t-75 115v5q0 15 19 15h62q15 0 21 -17q21 -75 130 -75q75 0 113.5 39t38.5 112v71h-4q-20 -38 -63.5 -60t-96.5 -22q-98 0 -165 69.5
t-67 170.5t68 172zM189 129q41 -44 106 -44t106 43.5t41 109.5q0 65 -41 108.5t-106 43.5t-106 -43.5t-41 -108.5q0 -66 41 -109z" />
    <glyph glyph-name="h" unicode="h" horiz-adv-x="586" 
d="M93 700h62q19 0 19 -19v-284h3q19 40 61 61.5t97 21.5q87 0 136 -52t49 -145v-264q0 -19 -19 -19h-62q-19 0 -19 19v240q0 130 -114 130q-61 0 -96.5 -36t-35.5 -97v-237q0 -19 -19 -19h-62q-19 0 -19 19v662q0 19 19 19z" />
    <glyph glyph-name="i" unicode="i" horiz-adv-x="247" 
d="M74 450q0 19 19 19h62q19 0 19 -19v-431q0 -19 -19 -19h-62q-19 0 -19 19v431zM55 620q0 29 19.5 48.5t49.5 19.5t49.5 -19.5t19.5 -48.5t-19 -48q-20 -20 -50 -20t-49.5 19.5t-19.5 48.5z" />
    <glyph glyph-name="j" unicode="j" horiz-adv-x="247" 
d="M-38 -133q18 -2 26 -2q46 0 66 22t20 77v486q0 19 19 19h62q19 0 19 -19v-490q0 -97 -40.5 -142t-122.5 -45q-30 0 -53 6q-17 3 -17 20v52q0 16 16 16h5zM75 669q19 19 49 19t49.5 -19.5t19.5 -48.5t-19 -48q-20 -20 -50 -20t-49.5 19.5t-19.5 48.5t20 49z" />
    <glyph glyph-name="k" unicode="k" horiz-adv-x="557" 
d="M74 19v662q0 19 19 19h62q19 0 19 -19v-400h54q23 0 34 -1l133 178q8 11 22 11h78q12 0 14.5 -4.5t2.5 -6.5q0 -5 -5 -12l-144 -191q132 -59 160 -234v-5q0 -16 -18 -16h-66q-17 0 -20 18q-18 93 -65.5 132.5t-136.5 39.5h-43v-171q0 -19 -19 -19h-62q-19 0 -19 19z" />
    <glyph glyph-name="l" unicode="l" horiz-adv-x="248" 
d="M93 700h62q19 0 19 -19v-662q0 -19 -19 -19h-62q-19 0 -19 19v662q0 19 19 19z" />
    <glyph glyph-name="m" unicode="m" horiz-adv-x="880" 
d="M74 450q0 19 19 19h59q19 0 19 -19v-56h4q18 41 56.5 63.5t89.5 22.5q108 0 150 -94h4q21 45 64.5 69.5t98.5 24.5q81 0 128 -52t47 -143v-266q0 -19 -19 -19h-62q-19 0 -19 19v241q0 64 -26.5 96.5t-74.5 32.5q-52 0 -85 -35.5t-33 -97.5v-237q0 -19 -19 -19h-62
q-19 0 -19 19v241q0 64 -27 96.5t-75 32.5q-52 0 -85 -36t-33 -97v-237q0 -19 -19 -19h-62q-19 0 -19 19v431z" />
    <glyph glyph-name="n" unicode="n" horiz-adv-x="586" 
d="M93 469h60q19 0 19 -19v-53h3q41 83 159 83q87 0 136.5 -52t49.5 -145v-264q0 -19 -19 -19h-62q-19 0 -19 19v240q0 130 -114 130q-61 0 -96.5 -36t-35.5 -97v-237q0 -19 -19 -19h-62q-19 0 -19 19v431q0 19 19 19z" />
    <glyph glyph-name="o" unicode="o" horiz-adv-x="590" 
d="M46 235q0 104 71.5 174.5t177.5 70.5t177.5 -70.5t71.5 -174.5t-71 -175q-72 -71 -178 -71t-177.5 71t-71.5 175zM148 235q0 -67 41 -111q40 -44 106 -44t106.5 44t40.5 111t-40.5 111t-106.5 44t-106.5 -44t-40.5 -111z" />
    <glyph glyph-name="p" unicode="p" horiz-adv-x="613" 
d="M74 -197v647q0 19 19 19h60q19 0 19 -19v-52h4q20 38 63 60t96 22q98 0 165 -70.5t67 -174.5q0 -105 -66.5 -175.5t-164.5 -70.5q-52 0 -95 22t-63 60h-4v-268q0 -19 -19 -19h-62q-19 0 -19 19zM212 124q40 -44 106 -44t106.5 44t40.5 111t-40.5 111t-106.5 44
t-106.5 -44t-40.5 -111t41 -111z" />
    <glyph glyph-name="q" unicode="q" horiz-adv-x="613" 
d="M46 235q0 104 67 174.5t165 70.5q53 0 96 -22t64 -60h4v52q0 19 19 19h59q19 0 19 -19v-647q0 -19 -19 -19h-62q-19 0 -19 19v268h-4q-20 -38 -63 -60t-95 -22q-97 0 -164 70.5t-67 175.5zM189 124q40 -44 106 -44t106.5 44t40.5 111t-40.5 111t-106.5 44t-106 -44
q-41 -44 -41 -111t41 -111z" />
    <glyph glyph-name="r" unicode="r" horiz-adv-x="390" 
d="M74 19v431q0 19 19 19h60q19 0 19 -19v-71h2q19 48 58.5 73.5t90.5 25.5q9 0 27 -2q16 -4 16 -22v-55q0 -17 -16 -17h-4q-8 1 -26 1q-146 0 -146 -182v-182q0 -19 -19 -19h-62q-19 0 -19 19z" />
    <glyph glyph-name="s" unicode="s" horiz-adv-x="498" 
d="M49 130q5 5 14 5h63q15 0 21 -16q18 -52 106 -52q102 0 102 65q0 26 -18.5 39.5t-65.5 20.5l-83 12q-143 20 -143 133q0 65 51.5 104t148.5 39q181 0 202 -135v-5q0 -15 -18 -15h-61q-16 0 -21 18q-13 58 -103 58q-101 0 -101 -63q0 -22 18.5 -35t66.5 -20l82 -12
q143 -21 143 -136q0 -69 -53 -107.5t-149 -38.5q-180 0 -206 126v4q0 6 4 11z" />
    <glyph glyph-name="t" unicode="t" horiz-adv-x="437" 
d="M16 403v47q0 19 19 19h87v112q0 19 19 19h62q19 0 19 -19v-112h159q19 0 19 -19v-47q0 -19 -19 -19h-159v-209q0 -52 22 -73.5t71 -21.5q38 0 68 11q7 3 11 3q11 0 11 -16v-50q0 -15 -14 -22q-41 -17 -95 -17q-174 0 -174 178v217h-87q-19 0 -19 19z" />
    <glyph glyph-name="u" unicode="u" horiz-adv-x="583" 
d="M86 469h62q19 0 19 -19v-240q0 -130 110 -130q60 0 96 36t36 97v237q0 19 19 19h62q19 0 19 -19v-431q0 -19 -19 -19h-60q-19 0 -19 19v54h-3q-19 -40 -61 -62t-98 -22q-86 0 -134 52t-48 145v264q0 19 19 19z" />
    <glyph glyph-name="v" unicode="v" horiz-adv-x="534" 
d="M40 469h66q17 0 23 -14l137 -334h2l138 334q4 14 22 14h66q17 0 17 -12q0 -4 -2 -10l-189 -433q-6 -14 -23 -14h-60q-17 0 -23 14l-189 433q-2 6 -2 10q0 12 17 12z" />
    <glyph glyph-name="w" unicode="w" horiz-adv-x="833" 
d="M48 469h64q16 0 22 -15l113 -328h3l116 328q6 15 22 15h57q16 0 22 -15l117 -328h2l113 328q6 15 22 15h64q17 0 17 -12q0 -4 -2 -10l-158 -432q-6 -15 -22 -15h-65q-17 0 -21 15l-116 321h-3l-115 -321q-6 -15 -22 -15h-65q-16 0 -22 15l-158 432q-2 6 -2 10q0 12 17 12
z" />
    <glyph glyph-name="x" unicode="x" horiz-adv-x="529" 
d="M38 23l166 217l-159 206q-5 7 -5 12q0 3 2 7t14 4h70q15 0 23 -11l114 -150h3l114 150q8 11 22 11h71q12 0 14 -4t2 -7q0 -5 -5 -12l-159 -206l165 -217q5 -7 5 -12q0 -3 -2 -7t-14 -4h-70q-14 0 -23 12l-120 158h-3l-121 -158q-8 -12 -22 -12h-70q-12 0 -14.5 4.5
t-2.5 6.5q0 5 5 12z" />
    <glyph glyph-name="y" unicode="y" horiz-adv-x="586" 
d="M84 -62h61q15 0 21 -17q21 -63 117 -63q133 0 133 136v89h-4q-19 -38 -60.5 -60.5t-98.5 -22.5q-87 0 -135.5 52t-48.5 143v255q0 19 19 19h62q19 0 19 -19v-230q0 -130 112 -130q59 0 95.5 36t36.5 97v227q0 19 19 19h62q19 0 19 -19v-456q0 -105 -61 -163t-169 -58
q-92 0 -148.5 39.5t-68.5 106.5q-1 3 -1 6q0 13 19 13z" />
    <glyph glyph-name="z" unicode="z" horiz-adv-x="485" 
d="M50 79l260 304h-242q-19 0 -19 19v48q0 19 19 19h353q19 0 19 -19v-36q0 -15 -8 -24l-260 -304h253q19 0 19 -19v-48q0 -19 -19 -19h-364q-19 0 -19 19v36q0 15 8 24z" />
    <glyph glyph-name="braceleft" unicode="{" horiz-adv-x="394" 
d="M53 352q0 19 19 20q30 2 43 15t13 43v205q0 70 33 101.5t107 31.5h63q19 0 19 -19v-48q0 -19 -19 -19h-48q-58 0 -58 -57v-188q0 -89 -79 -109v-2q79 -20 79 -109v-188q0 -57 58 -57h48q19 0 19 -19v-48q0 -19 -19 -19h-63q-74 0 -107 31.5t-33 101.5v205q0 30 -13.5 43
t-42.5 15q-19 1 -19 20v50z" />
    <glyph glyph-name="bar" unicode="|" horiz-adv-x="278" 
d="M108 774h62q19 0 19 -19v-822q0 -19 -19 -19h-62q-19 0 -19 19v822q0 19 19 19z" />
    <glyph glyph-name="braceright" unicode="}" horiz-adv-x="394" 
d="M44 -47q0 19 19 19h49q58 0 58 57v188q0 89 78 109v2q-78 20 -78 109v188q0 57 -58 57h-49q-19 0 -19 19v48q0 19 19 19h63q74 0 107 -31.5t33 -101.5v-205q0 -30 13 -43t44 -15q19 -2 19 -20v-50q0 -18 -19 -20q-30 -2 -43.5 -15t-13.5 -43v-205q0 -70 -33 -101.5
t-107 -31.5h-63q-19 0 -19 19v48z" />
    <glyph glyph-name="asciitilde" unicode="~" 
d="M90 352q51 32 107 32q35 0 104.5 -22t102.5 -22q50 0 96 27q7 4 12 4q10 0 10 -16v-49q0 -14 -13 -23q-50 -32 -104 -32q-37 0 -105 22t-105 22q-48 0 -94 -28q-6 -4 -11 -4q-3 0 -7.5 2.5t-4.5 14.5v49q0 14 12 23z" />
    <glyph glyph-name="uni00A0" unicode="&#xa0;" horiz-adv-x="246" 
 />
    <glyph glyph-name="exclamdown" unicode="&#xa1;" horiz-adv-x="289" 
d="M101 229q0 19 19 19h50q19 0 19 -19l11 -439q0 -19 -18 -19h-75q-18 0 -18 19zM95 461q19 19 50 19t50.5 -19t19.5 -51q0 -31 -19.5 -50t-50.5 -19t-50.5 19t-19.5 50q0 32 20 51z" />
    <glyph glyph-name="cent" unicode="&#xa2;" horiz-adv-x="588" 
d="M112 511q55 67 147 81v100q0 19 19 19h43q19 0 19 -19v-99q75 -10 125.5 -54.5t64.5 -112.5v-5q0 -15 -18 -15h-64q-16 0 -21 16q-21 67 -92 80v-304q70 14 91 79q5 16 21 16h65q18 0 18 -14v-4q-14 -68 -64.5 -113t-125.5 -55v-99q0 -19 -19 -19h-43q-19 0 -19 19v100
q-92 14 -147.5 81t-55.5 161t56 161zM158 350q0 -57 28.5 -97.5t77.5 -52.5v300q-49 -12 -77 -52q-29 -41 -29 -98z" />
    <glyph glyph-name="sterling" unicode="&#xa3;" horiz-adv-x="590" 
d="M73 374h50v122q0 102 54 158.5t155 56.5q90 0 144 -46.5t62 -140.5v-5q0 -15 -18 -15h-63q-17 0 -19 19q-10 93 -104 93q-108 0 -108 -128v-114h216q19 0 19 -19v-44q0 -19 -19 -19h-216v-197h295q19 0 19 -19v-57q0 -19 -19 -19h-448q-19 0 -19 19v57q0 19 19 19h50v197
h-50q-19 0 -19 19v44q0 19 19 19z" />
    <glyph glyph-name="currency" unicode="&#xa4;" horiz-adv-x="622" 
d="M76 566l19 19q7 6 13 6q7 0 14 -6l74 -74q53 37 121 37q63 0 114 -32l69 69q6 6 13 7q7 -1 13 -7l19 -19q7 -7 7 -14q0 -6 -7 -13l-66 -66q42 -53 42 -123q0 -71 -41 -123l65 -66q7 -7 7 -13q0 -7 -7 -14l-19 -19q-6 -6 -13 -6q-6 0 -13 6l-69 69q-51 -32 -114 -32
q-67 0 -122 37l-73 -74q-7 -6 -14 -6q-6 0 -13 6l-19 19q-6 7 -6 14q0 6 6 13l74 74q-36 50 -36 115t36 115l-74 74q-6 7 -6 13q0 7 6 14zM209 350q0 -50 30 -82q29 -32 78 -32t79 32.5t30 81.5t-30 81.5t-79 32.5q-48 0 -78 -32.5t-30 -81.5z" />
    <glyph glyph-name="yen" unicode="&#xa5;" horiz-adv-x="606" 
d="M27 694q4 6 15 6h73q16 0 23 -13l164 -302h2l164 302q7 13 23 13h73q11 0 14 -4.5t3 -7.5q0 -5 -4 -11l-188 -326h124q19 0 19 -19v-31q0 -19 -19 -19h-159v-84h159q19 0 19 -19v-31q0 -19 -19 -19h-159v-110q0 -19 -19 -19h-64q-19 0 -19 19v110h-159q-19 0 -19 19v31
q0 19 19 19h159v84h-159q-19 0 -19 19v31q0 19 19 19h124l-188 326q-4 6 -4 11q0 3 2 6z" />
    <glyph glyph-name="brokenbar" unicode="&#xa6;" horiz-adv-x="278" 
d="M89 755q0 19 19 19h62q19 0 19 -19v-304q0 -19 -19 -19h-62q-19 0 -19 19v304zM108 256h62q19 0 19 -19v-304q0 -19 -19 -19h-62q-19 0 -19 19v304q0 19 19 19z" />
    <glyph glyph-name="section" unicode="&#xa7;" horiz-adv-x="545" 
d="M57 307q0 97 83 134q-79 41 -79 127q0 75 56 120.5t156 45.5q90 0 145 -40t65 -120v-5q0 -15 -18 -15h-59q-16 0 -21 18q-13 72 -116 72q-105 0 -105 -76q0 -29 18.5 -45t65.5 -27l88 -20q78 -18 115 -55.5t37 -98.5q0 -49 -21.5 -84.5t-59.5 -52.5q79 -42 79 -126
q0 -78 -56 -123.5t-157 -45.5q-93 0 -149 42t-66 122v3q0 17 19 17h59q17 0 20 -18q15 -77 119 -77q51 0 79.5 20t28.5 56q0 54 -84 73l-82 19q-160 36 -160 160zM176 262q20 -19 70 -31l33 -8q12 -3 23 -3q30 0 58.5 23t28.5 70q0 32 -20 51t-69 30l-34 8q-13 3 -24 3
q-29 0 -57.5 -21.5t-28.5 -70.5q0 -32 20 -51z" />
    <glyph glyph-name="dieresis" unicode="&#xa8;" 
d="M146 667q18 18 47 18q28 0 46.5 -18.5t18.5 -47.5t-18.5 -48t-46.5 -19q-29 0 -47.5 19t-18.5 48t19 48zM361 667q18 18 46 18q29 0 47.5 -18.5t18.5 -47.5t-18.5 -48t-47.5 -19q-28 0 -46.5 19t-18.5 48t19 48z" />
    <glyph glyph-name="copyright" unicode="&#xa9;" horiz-adv-x="879" 
d="M182 606q105 105 257 105q153 0 258.5 -105.5t105.5 -255.5t-105.5 -255.5t-258.5 -105.5q-152 0 -257.5 105.5t-105.5 255.5t106 256zM235 145q82 -85 204 -85q123 0 205 85t82 205t-82 205t-205 85q-122 0 -204.5 -85t-82.5 -205t83 -205zM252 350q0 81 54 135t139 54
q66 0 114 -34t62 -90q1 -4 1 -8q0 -13 -17 -13h-53q-15 0 -20 17q-11 23 -34 36.5t-53 13.5q-47 0 -75.5 -31t-28.5 -80t29 -80t75 -31q30 0 53 13.5t34 36.5q5 17 20 17h53q18 0 18 -12q0 -3 -1 -6q-12 -56 -60 -91.5t-117 -35.5q-85 0 -139 54t-54 135z" />
    <glyph glyph-name="ordfeminine" unicode="&#xaa;" horiz-adv-x="494" 
d="M90 655q53 56 132 56q42 0 75 -17.5t50 -47.5h3v37q0 19 19 19h51q19 0 19 -19v-340q0 -19 -19 -19h-51q-19 0 -19 19v36h-3q-17 -31 -50.5 -47.5t-74.5 -16.5q-79 0 -132 56.5t-53 141.5t53 142zM161 432q30 -33 79 -33t79 32.5t30 81.5t-30 81.5t-79 32.5
q-48 0 -78 -32q-31 -33 -31 -82t30 -81z" />
    <glyph glyph-name="guillemotleft" unicode="&#xab;" horiz-adv-x="544" 
d="M273 247l103 159q9 12 23 12h67q12 0 14.5 -4.5t2.5 -7.5q0 -5 -4 -11l-105 -161l105 -161q4 -6 4 -11q0 -3 -2.5 -7.5t-14.5 -4.5h-67q-14 0 -23 12l-103 159q-4 7 -4 13t4 13zM53 247l103 159q9 12 23 12h67q12 0 14.5 -4.5t2.5 -7.5q0 -5 -4 -11l-105 -161l105 -161
q4 -6 4 -11q0 -3 -2.5 -7.5t-14.5 -4.5h-67q-14 0 -23 12l-103 159q-4 7 -4 13t4 13z" />
    <glyph glyph-name="logicalnot" unicode="&#xac;" 
d="M78 344q0 19 19 19h406q19 0 19 -19v-156q0 -19 -19 -19h-57q-19 0 -19 19v84h-330q-19 0 -19 19v53z" />
    <glyph glyph-name="registered" unicode="&#xae;" horiz-adv-x="551" 
d="M55 491q0 92 65 156q64 64 156 64t156 -64t64 -156t-64 -156t-156 -64t-156.5 64t-64.5 156zM154 368q49 -51 122 -51q72 0 121 50.5t49 123.5t-49 123.5t-121 50.5q-73 0 -122 -50.5t-49 -123.5t49 -123zM205 609h81q89 0 89 -80q0 -59 -49 -74l38 -53q4 -6 4 -11
q0 -3 -2.5 -7.5t-13.5 -4.5h-20q-14 0 -23 12l-39 59h-29v-52q0 -19 -19 -19h-17q-19 0 -19 19v192q0 19 19 19zM283 498q18 0 25.5 7t7.5 23t-7.5 23t-25.5 7h-42v-60h42z" />
    <glyph glyph-name="macron" unicode="&#xaf;" 
d="M169 645h262q19 0 19 -19v-43q0 -19 -19 -19h-262q-19 0 -19 19v43q0 19 19 19z" />
    <glyph glyph-name="degree" unicode="&#xb0;" horiz-adv-x="391" 
d="M85 671q44 43 110 43q67 0 110.5 -43.5t43.5 -107.5t-43.5 -107.5t-110.5 -43.5q-66 0 -110 43.5t-44 107.5t44 108zM122 563q0 -34 20 -55t53 -21q34 0 54 21t20 55q0 33 -20 54t-54 21q-33 0 -53 -21t-20 -54z" />
    <glyph glyph-name="plusminus" unicode="&#xb1;" 
d="M97 427h155v153q0 19 19 19h58q19 0 19 -19v-153h155q19 0 19 -19v-52q0 -19 -19 -19h-155v-153q0 -19 -19 -19h-58q-19 0 -19 19v153h-155q-19 0 -19 19v52q0 19 19 19zM78 71q0 19 19 19h406q19 0 19 -19v-52q0 -19 -19 -19h-406q-19 0 -19 19v52z" />
    <glyph glyph-name="twosuperior" unicode="&#xb2;" horiz-adv-x="321" 
d="M30 352v11q0 62 18 95t76 61l45 22q49 25 49 56q0 20 -13.5 32t-37.5 12q-46 0 -56 -44q-5 -17 -20 -17h-41q-19 0 -19 17v2q6 52 41 82t94 30q60 0 94.5 -30t34.5 -83q0 -39 -21.5 -65t-66.5 -49l-45 -21q-28 -13 -39.5 -26t-15.5 -35h165q19 0 19 -19v-31
q0 -19 -19 -19h-223q-19 0 -19 19z" />
    <glyph glyph-name="threesuperior" unicode="&#xb3;" horiz-adv-x="328" 
d="M48 448h40q14 0 21 -17q11 -35 57 -35q26 0 41 13t15 35q0 43 -58 43h-13q-19 0 -19 19v29q0 19 19 19h11q26 0 41 12t15 33q0 41 -52 41q-43 0 -55 -35q-5 -18 -20 -18h-40q-18 0 -18 15v5q7 43 38 73q36 31 94 31q61 0 95.5 -28t34.5 -74q0 -63 -61 -87q67 -22 67 -88
q0 -49 -36 -78.5t-101 -29.5q-59 0 -94 29q-34 28 -40 73v5q0 15 18 15z" />
    <glyph glyph-name="acute" unicode="&#xb4;" 
d="M255 564l79 116q8 13 22 13h78q12 0 14 -4.5t2 -6.5q0 -5 -6 -12l-94 -118q-7 -11 -22 -11h-61q-11 0 -13.5 4.5t-2.5 7.5q0 5 4 11z" />
    <glyph glyph-name="uni00B5" unicode="&#xb5;" horiz-adv-x="625" 
d="M89 450q0 19 19 19h62q19 0 19 -19v-241q0 -126 107 -126q64 0 102 38.5t38 112.5v216q0 19 19 19h62q19 0 19 -19v-431q0 -19 -19 -19h-55q-19 0 -19 19v72q-19 -48 -60 -75t-93 -27q-67 0 -101 47v-233q0 -19 -19 -19h-62q-19 0 -19 19v647z" />
    <glyph glyph-name="paragraph" unicode="&#xb6;" horiz-adv-x="636" 
d="M56 581q0 69 50 111t141 42h79q19 0 19 -19v-826q0 -19 -19 -19h-59q-19 0 -19 19v539h-13q-83 0 -131 42.5t-48 110.5zM470 734h58q19 0 19 -19v-826q0 -19 -19 -19h-58q-19 0 -19 19v826q0 19 19 19z" />
    <glyph glyph-name="periodcentered" unicode="&#xb7;" horiz-adv-x="292" 
d="M76 293q0 31 19 50.5t51 19.5t51 -19.5t19 -50.5t-19 -50q-19 -20 -51 -20t-51 19.5t-19 50.5z" />
    <glyph glyph-name="cedilla" unicode="&#xb8;" 
d="M213 -158l58 166q6 15 22 15h52q10 0 13.5 -5t3.5 -10q0 -3 -1 -7l-50 -164q-4 -16 -21 -16h-62q-17 0 -17 12q0 4 2 9z" />
    <glyph glyph-name="onesuperior" unicode="&#xb9;" horiz-adv-x="234" 
d="M26 603v36q0 14 13 23l63 36q12 6 24 6h40q19 0 19 -19v-333q0 -19 -19 -19h-40q-19 0 -19 19v271l-58 -34q-5 -4 -10 -4q-3 0 -8 3t-5 15z" />
    <glyph glyph-name="ordmasculine" unicode="&#xba;" horiz-adv-x="481" 
d="M95 654q58 57 145 57t145.5 -57t58.5 -141q0 -85 -58 -141.5t-146 -56.5q-87 0 -145 57t-58 141t58 141zM131 513q0 -49 30 -81q30 -33 79 -33t79 32.5t30 81.5t-30 81.5t-79 32.5q-48 0 -78.5 -32.5t-30.5 -81.5z" />
    <glyph glyph-name="guillemotright" unicode="&#xbb;" horiz-adv-x="544" 
d="M65 73l105 161l-105 161q-4 6 -4 11q0 3 2.5 7.5t14.5 4.5h67q14 0 23 -12l103 -159q4 -7 4 -13t-4 -13l-103 -159q-9 -12 -23 -12h-67q-12 0 -14.5 4.5t-2.5 7.5q0 5 4 11zM285 73l105 161l-105 161q-4 6 -4 11q0 3 2.5 7.5t14.5 4.5h67q14 0 23 -12l103 -159
q4 -7 4 -13t-4 -13l-103 -159q-9 -12 -23 -12h-67q-12 0 -14.5 4.5t-2.5 7.5q0 5 4 11z" />
    <glyph glyph-name="onequarter" unicode="&#xbc;" horiz-adv-x="717" 
d="M97 23l418 665q7 12 23 12h49q12 0 15 -4.5t3 -7.5q0 -5 -4 -11l-418 -665q-8 -12 -23 -12h-50q-11 0 -14 4.5t-3 7.5q0 5 4 11zM379 123q0 14 8 23l156 214q8 12 23 12h50q19 0 19 -19v-213h23q19 0 19 -19v-29q0 -19 -19 -19h-23v-54q0 -19 -19 -19h-34q-19 0 -19 19
v54h-165q-19 0 -19 19v31zM38 635q0 15 14 23l62 35q11 7 24 7h40q19 0 19 -19v-334q0 -19 -19 -19h-40q-19 0 -19 19v271l-58 -33q-5 -4 -10 -4q-3 0 -8 3t-5 14v37zM459 140h104v141z" />
    <glyph glyph-name="onehalf" unicode="&#xbd;" horiz-adv-x="765" 
d="M97 23l418 665q7 12 23 12h49q12 0 15 -4.5t3 -7.5q0 -5 -4 -11l-418 -665q-8 -12 -23 -12h-50q-11 0 -14 4.5t-3 7.5q0 5 4 11zM472 125q18 33 76 62l45 22q49 23 49 55q0 20 -13.5 32t-37.5 12q-47 0 -57 -43q-3 -18 -20 -18h-41q-18 0 -18 17v3q5 52 40 81.5t95 29.5
t94 -30t34 -82q0 -40 -21.5 -66t-66.5 -48l-45 -22q-28 -13 -39.5 -25.5t-14.5 -35.5h165q19 0 19 -19v-31q0 -19 -19 -19h-224q-19 0 -19 19v11q0 61 19 95zM38 635q0 15 14 23l62 35q11 7 24 7h40q19 0 19 -19v-334q0 -19 -19 -19h-40q-19 0 -19 19v271l-58 -33
q-5 -4 -10 -4q-3 0 -8 3t-5 14v37z" />
    <glyph glyph-name="threequarters" unicode="&#xbe;" horiz-adv-x="782" 
d="M162 23l417 665q8 12 23 12h50q11 0 14 -4.5t3 -7.5q0 -5 -4 -11l-417 -665q-8 -12 -23 -12h-50q-11 0 -14 4.5t-3 7.5q0 5 4 11zM444 123q0 13 7 23l157 214q7 12 23 12h50q19 0 19 -19v-213h23q19 0 19 -19v-29q0 -19 -19 -19h-23v-54q0 -19 -19 -19h-35q-19 0 -19 19
v54h-164q-19 0 -19 19v31zM48 448h40q14 0 21 -17q11 -35 57 -35q26 0 41 13t15 35q0 43 -58 43h-13q-19 0 -19 19v29q0 19 19 19h11q26 0 41 12t15 33q0 41 -52 41q-43 0 -55 -35q-5 -18 -20 -18h-40q-18 0 -18 15v5q7 43 38 73q36 31 94 31q61 0 95.5 -28t34.5 -74
q0 -63 -61 -87q67 -22 67 -88q0 -49 -36 -78.5t-101 -29.5q-59 0 -94 29q-34 28 -40 73v5q0 15 18 15zM627 140v140l-103 -140h103z" />
    <glyph glyph-name="questiondown" unicode="&#xbf;" horiz-adv-x="491" 
d="M62 7q19 35 68 76l47 39q26 21 33.5 37.5t7.5 47.5v26q0 19 19 19h61q19 0 19 -19v-28q0 -50 -14.5 -79t-61.5 -68l-48 -40q-50 -41 -50 -85q0 -38 24 -59t69 -21q49 0 80.5 24.5t39.5 69.5q3 18 20 18h61q18 0 18 -15v-5q-8 -85 -65.5 -134.5t-150.5 -49.5
q-90 0 -143.5 46.5t-53.5 123.5q0 41 20 76zM197 410q0 32 20 51q19 19 50 19t50.5 -19t19.5 -51q0 -31 -19.5 -50t-50.5 -19t-50.5 19t-19.5 50z" />
    <glyph glyph-name="Agrave" unicode="&#xc0;" horiz-adv-x="713" 
d="M24 22l274 664q6 14 22 14h72q18 0 22 -14l275 -664q2 -6 2 -10q0 -12 -17 -12h-71q-17 0 -21 14l-55 137h-341l-55 -137q-6 -14 -22 -14h-70q-17 0 -17 12q0 4 2 10zM489 246l-131 328h-3l-131 -328h265zM222 917q3 7 15 7h77q13 0 23 -13l79 -116q4 -6 4 -11
q0 -3 -2.5 -7.5t-14.5 -4.5h-60q-15 0 -23 11l-94 118q-5 6 -5 12q0 2 1 4z" />
    <glyph glyph-name="Aacute" unicode="&#xc1;" horiz-adv-x="713" 
d="M24 22l274 664q6 14 22 14h72q18 0 22 -14l275 -664q2 -6 2 -10q0 -12 -17 -12h-71q-17 0 -21 14l-55 137h-341l-55 -137q-6 -14 -22 -14h-70q-17 0 -17 12q0 4 2 10zM224 246h265l-131 328h-3zM290 795l79 116q8 13 22 13h78q12 0 14 -4.5t2 -6.5q0 -5 -6 -12l-94 -118
q-7 -11 -22 -11h-61q-11 0 -13.5 4.5t-2.5 7.5q0 5 4 11z" />
    <glyph glyph-name="Acircumflex" unicode="&#xc2;" horiz-adv-x="713" 
d="M24 22l274 664q6 14 22 14h72q18 0 22 -14l275 -664q2 -6 2 -10q0 -12 -17 -12h-71q-17 0 -21 14l-55 137h-341l-55 -137q-6 -14 -22 -14h-70q-17 0 -17 12q0 4 2 10zM489 246l-131 328h-3l-131 -328h265zM195 795l103 118q11 11 24 11h68q13 0 24 -11l103 -118
q6 -7 6 -12q0 -2 -2 -6.5t-14 -4.5h-57q-15 0 -24 10l-69 80h-2l-69 -80q-9 -10 -23 -10h-58q-12 0 -14 4.5t-2 6.5q0 5 6 12z" />
    <glyph glyph-name="Atilde" unicode="&#xc3;" horiz-adv-x="713" 
d="M24 22l274 664q6 14 22 14h72q18 0 22 -14l275 -664q2 -6 2 -10q0 -12 -17 -12h-71q-17 0 -21 14l-55 137h-341l-55 -137q-6 -14 -22 -14h-70q-17 0 -17 12q0 4 2 10zM489 246l-131 328h-3l-131 -328h265zM187 797q4 58 29 89t67 31q7 0 13 -0.5t12 -2.5t10.5 -3
t10.5 -4.5t9 -5t9.5 -6t8.5 -5.5t8.5 -6t7.5 -6q33 -25 48 -25q28 0 33 44q1 19 19 19h37q18 0 18 -19q0 -5 -1 -10q-4 -54 -29.5 -82.5t-65.5 -28.5q-38 0 -89 40q-33 25 -48 25q-27 0 -33 -45q-2 -19 -19 -19h-37q-18 0 -18 17v3z" />
    <glyph glyph-name="Adieresis" unicode="&#xc4;" horiz-adv-x="713" 
d="M24 22l274 664q6 14 22 14h72q18 0 22 -14l275 -664q2 -6 2 -10q0 -12 -17 -12h-71q-17 0 -21 14l-55 137h-341l-55 -137q-6 -14 -22 -14h-70q-17 0 -17 12q0 4 2 10zM489 246l-131 328h-3l-131 -328h265zM399 850q0 29 18.5 47.5t46.5 18.5q29 0 47.5 -18.5t18.5 -47.5
t-18.5 -48t-47.5 -19q-28 0 -46.5 19t-18.5 48zM203 898q18 18 47 18q28 0 46.5 -18.5t18.5 -47.5t-18.5 -48t-46.5 -19q-29 0 -47.5 19t-18.5 48t19 48z" />
    <glyph glyph-name="Aring" unicode="&#xc5;" horiz-adv-x="713" 
d="M24 22l274 664q6 14 22 14h72q18 0 22 -14l275 -664q2 -6 2 -10q0 -12 -17 -12h-71q-17 0 -21 14l-55 137h-341l-55 -137q-6 -14 -22 -14h-70q-17 0 -17 12q0 4 2 10zM269 965q36 34 88 34t88 -34t36 -83t-36 -82q-36 -34 -88 -34t-88 33.5t-36 82.5t36 83zM224 246h265
l-131 328h-3zM317 843q15 -16 40 -16t40 15.5t15 39.5t-15 40q-15 15 -40 15t-40 -15.5t-15 -39.5t15 -39z" />
    <glyph glyph-name="AE" unicode="&#xc6;" horiz-adv-x="1071" 
d="M20 23l444 665q8 12 23 12h506q19 0 19 -19v-60q0 -19 -19 -19h-356v-204h281q19 0 19 -19v-58q0 -19 -19 -19h-281v-204h360q19 0 19 -19v-60q0 -19 -19 -19h-447q-19 0 -19 19v134h-303l-93 -141q-7 -12 -22 -12h-80q-12 0 -14.5 4.5t-2.5 7.5q0 5 4 11zM292 249h239
v356h-3z" />
    <glyph glyph-name="Ccedilla" unicode="&#xc7;" horiz-adv-x="805" 
d="M158 607q102 104 258 104q123 0 213 -67.5t116 -184.5q1 -4 1 -7q0 -14 -17 -14h-73q-16 0 -21 17q-19 73 -77.5 114.5t-141.5 41.5q-112 0 -181.5 -72.5t-69.5 -188.5t69.5 -188.5t181.5 -72.5q83 0 141.5 41.5t77.5 114.5q5 17 21 17h73q17 0 17 -14q0 -4 -1 -8
q-24 -105 -100.5 -170.5t-182.5 -77.5l-47 -155q-4 -16 -21 -16h-62q-17 0 -17 12q0 4 2 9l52 150q-138 16 -225.5 117t-87.5 241q0 152 102 257z" />
    <glyph glyph-name="Egrave" unicode="&#xc8;" horiz-adv-x="629" 
d="M108 700h442q19 0 19 -19v-60q0 -19 -19 -19h-356v-204h282q19 0 19 -19v-58q0 -19 -19 -19h-282v-204h360q19 0 19 -19v-60q0 -19 -19 -19h-446q-19 0 -19 19v662q0 19 19 19zM193 917q3 7 15 7h77q13 0 23 -13l79 -116q4 -6 4 -11q0 -3 -2.5 -7.5t-14.5 -4.5h-60
q-15 0 -23 11l-94 118q-5 6 -5 12q0 2 1 4z" />
    <glyph glyph-name="Eacute" unicode="&#xc9;" horiz-adv-x="629" 
d="M89 681q0 19 19 19h442q19 0 19 -19v-60q0 -19 -19 -19h-356v-204h282q19 0 19 -19v-58q0 -19 -19 -19h-282v-204h360q19 0 19 -19v-60q0 -19 -19 -19h-446q-19 0 -19 19v662zM261 795l79 116q8 13 22 13h78q12 0 14 -4.5t2 -6.5q0 -5 -6 -12l-94 -118q-7 -11 -22 -11
h-61q-11 0 -13.5 4.5t-2.5 7.5q0 5 4 11z" />
    <glyph glyph-name="Ecircumflex" unicode="&#xca;" horiz-adv-x="629" 
d="M108 700h442q19 0 19 -19v-60q0 -19 -19 -19h-356v-204h282q19 0 19 -19v-58q0 -19 -19 -19h-282v-204h360q19 0 19 -19v-60q0 -19 -19 -19h-446q-19 0 -19 19v662q0 19 19 19zM166 795l103 118q11 11 24 11h68q13 0 24 -11l103 -118q6 -7 6 -12q0 -2 -2 -6.5t-14 -4.5
h-57q-15 0 -24 10l-69 80h-2l-69 -80q-9 -10 -23 -10h-58q-12 0 -14 4.5t-2 6.5q0 5 6 12z" />
    <glyph glyph-name="Edieresis" unicode="&#xcb;" horiz-adv-x="629" 
d="M89 681q0 19 19 19h442q19 0 19 -19v-60q0 -19 -19 -19h-356v-204h282q19 0 19 -19v-58q0 -19 -19 -19h-282v-204h360q19 0 19 -19v-60q0 -19 -19 -19h-446q-19 0 -19 19v662zM173 898q18 18 47 18q28 0 46.5 -18.5t18.5 -47.5t-18.5 -48t-46.5 -19q-29 0 -47.5 19
t-18.5 48t19 48zM388 898q18 18 46 18q29 0 47.5 -18.5t18.5 -47.5t-18.5 -48t-47.5 -19q-28 0 -46.5 19t-18.5 48t19 48z" />
    <glyph glyph-name="Igrave" unicode="&#xcc;" horiz-adv-x="283" 
d="M108 700h67q19 0 19 -19v-662q0 -19 -19 -19h-67q-19 0 -19 19v662q0 19 19 19zM7 917q3 7 15 7h77q13 0 23 -13l79 -116q4 -6 4 -11q0 -3 -2.5 -7.5t-14.5 -4.5h-60q-15 0 -23 11l-94 118q-5 6 -5 12q0 2 1 4z" />
    <glyph glyph-name="Iacute" unicode="&#xcd;" horiz-adv-x="283" 
d="M89 681q0 19 19 19h67q19 0 19 -19v-662q0 -19 -19 -19h-67q-19 0 -19 19v662zM75 795l79 116q8 13 22 13h78q12 0 14 -4.5t2 -6.5q0 -5 -6 -12l-94 -118q-7 -11 -22 -11h-61q-11 0 -13.5 4.5t-2.5 7.5q0 5 4 11z" />
    <glyph glyph-name="Icircumflex" unicode="&#xce;" horiz-adv-x="283" 
d="M89 681q0 19 19 19h67q19 0 19 -19v-662q0 -19 -19 -19h-67q-19 0 -19 19v662zM-20 795l103 118q11 11 24 11h68q13 0 24 -11l103 -118q6 -7 6 -12q0 -2 -2 -6.5t-14 -4.5h-57q-15 0 -24 10l-69 80h-2l-69 -80q-9 -10 -23 -10h-58q-12 0 -14 4.5t-2 6.5q0 5 6 12z" />
    <glyph glyph-name="Idieresis" unicode="&#xcf;" horiz-adv-x="283" 
d="M108 700h67q19 0 19 -19v-662q0 -19 -19 -19h-67q-19 0 -19 19v662q0 19 19 19zM183 850q0 29 18.5 47.5t46.5 18.5q29 0 47.5 -18.5t18.5 -47.5t-18.5 -48t-47.5 -19q-28 0 -46.5 19t-18.5 48zM-14 898q19 18 48 18q28 0 46.5 -18.5t18.5 -47.5t-18.5 -48t-46.5 -19
q-29 0 -47.5 19t-18.5 48t18 48z" />
    <glyph glyph-name="Eth" unicode="&#xd0;" horiz-adv-x="744" 
d="M28 391h77v290q0 19 19 19h202q161 0 261.5 -98t100.5 -252t-100.5 -252t-261.5 -98h-202q-19 0 -19 19v289h-77q-19 0 -19 19v45q0 19 19 19zM210 99h113q119 0 187 68t68 183t-68 183t-187 68h-113v-210h146q19 0 19 -19v-45q0 -19 -19 -19h-146v-209z" />
    <glyph glyph-name="Ntilde" unicode="&#xd1;" horiz-adv-x="771" 
d="M108 700h67q15 0 23 -11l377 -514h2v506q0 19 19 19h67q19 0 19 -19v-662q0 -19 -19 -19h-68q-15 0 -23 11l-377 513h-1v-505q0 -19 -19 -19h-67q-19 0 -19 19v662q0 19 19 19zM215 797q4 58 29 89t67 31q7 0 13 -0.5t12 -2.5t10.5 -3t10.5 -4.5t9 -5t9.5 -6t8.5 -5.5
t8.5 -6t7.5 -6q33 -25 48 -25q28 0 33 44q1 19 19 19h37q18 0 18 -19q0 -5 -1 -10q-4 -54 -29.5 -82.5t-65.5 -28.5q-38 0 -89 40q-33 25 -48 25q-27 0 -33 -45q-2 -19 -19 -19h-37q-18 0 -18 17v3z" />
    <glyph glyph-name="Ograve" unicode="&#xd2;" horiz-adv-x="830" 
d="M56 350q0 152 104 256.5t255 104.5t255 -104.5t104 -256.5t-104 -256q-104 -105 -255 -105t-255 104.5t-104 256.5zM165 350q0 -113 70 -187t180 -74t179.5 74t69.5 187t-69.5 187t-179.5 74t-180 -74t-70 -187zM281 917q3 7 15 7h77q13 0 23 -13l79 -116q4 -6 4 -11
q0 -3 -2.5 -7.5t-14.5 -4.5h-60q-15 0 -23 11l-94 118q-5 6 -5 12q0 2 1 4z" />
    <glyph glyph-name="Oacute" unicode="&#xd3;" horiz-adv-x="830" 
d="M56 350q0 152 104 256.5t255 104.5t255 -104.5t104 -256.5t-104 -256q-104 -105 -255 -105t-255 104.5t-104 256.5zM165 350q0 -113 70 -187t180 -74t179.5 74t69.5 187t-69.5 187t-179.5 74t-180 -74t-70 -187zM348 795l79 116q8 13 22 13h78q12 0 14 -4.5t2 -6.5
q0 -5 -6 -12l-94 -118q-7 -11 -22 -11h-61q-11 0 -13.5 4.5t-2.5 7.5q0 5 4 11z" />
    <glyph glyph-name="Ocircumflex" unicode="&#xd4;" horiz-adv-x="830" 
d="M160 607q104 104 255 104t255 -104.5t104 -256.5t-104 -256q-104 -105 -255 -105t-255 104.5t-104 256.5t104 257zM165 350q0 -113 70 -187t180 -74t179.5 74t69.5 187t-69.5 187t-179.5 74t-180 -74t-70 -187zM254 795l103 118q11 11 24 11h68q13 0 24 -11l103 -118
q6 -7 6 -12q0 -2 -2 -6.5t-14 -4.5h-57q-15 0 -24 10l-69 80h-2l-69 -80q-9 -10 -23 -10h-58q-12 0 -14 4.5t-2 6.5q0 5 6 12z" />
    <glyph glyph-name="Otilde" unicode="&#xd5;" horiz-adv-x="830" 
d="M56 350q0 152 104 256.5t255 104.5t255 -104.5t104 -256.5t-104 -256q-104 -105 -255 -105t-255 104.5t-104 256.5zM165 350q0 -113 70 -187t180 -74t179.5 74t69.5 187t-69.5 187t-179.5 74t-180 -74t-70 -187zM245 797q4 58 29 89t67 31q7 0 13 -0.5t12 -2.5t10.5 -3
t10.5 -4.5t9 -5t9.5 -6t8.5 -5.5t8.5 -6t7.5 -6q33 -25 48 -25q28 0 33 44q1 19 19 19h37q18 0 18 -19q0 -5 -1 -10q-4 -54 -29.5 -82.5t-65.5 -28.5q-38 0 -89 40q-33 25 -48 25q-27 0 -33 -45q-2 -19 -19 -19h-37q-18 0 -18 17v3z" />
    <glyph glyph-name="Odieresis" unicode="&#xd6;" horiz-adv-x="830" 
d="M160 607q104 104 255 104t255 -104.5t104 -256.5t-104 -256q-104 -105 -255 -105t-255 104.5t-104 256.5t104 257zM235 163q70 -74 180 -74t179.5 74t69.5 187t-69.5 187t-179.5 74t-180 -74t-70 -187t70 -187zM242 850q0 29 18.5 47.5t47.5 18.5q28 0 46.5 -18.5
t18.5 -47.5t-18.5 -48t-46.5 -19q-29 0 -47.5 19t-18.5 48zM476 898q18 18 46 18q29 0 47.5 -18.5t18.5 -47.5t-18.5 -48t-47.5 -19q-28 0 -46.5 19t-18.5 48t19 48z" />
    <glyph glyph-name="multiply" unicode="&#xd7;" 
d="M139 121l-35 35q-13 13 0 26l135 135l-135 135q-13 13 0 26l35 35q13 13 26 0l135 -135l135 135q13 13 26 0l35 -35q13 -13 0 -26l-135 -135l135 -135q13 -13 0 -26l-35 -35q-13 -13 -26 0l-135 135l-135 -135q-13 -13 -26 0z" />
    <glyph glyph-name="Oslash" unicode="&#xd8;" horiz-adv-x="830" 
d="M56 350q0 152 104 256.5t255 104.5q77 0 144 -29l45 77q6 10 14 10q6 0 12 -4l38 -21q9 -6 9 -15q0 -5 -3 -11l-44 -77q67 -50 105.5 -126t38.5 -165q0 -152 -104 -256.5t-255 -104.5q-76 0 -145 30l-45 -78q-6 -10 -15 -10q-5 0 -10 3l-38 22q-10 6 -10 14q0 5 4 11
l44 78q-67 50 -105.5 126t-38.5 165zM415 88q111 0 181 74.5t70 187.5q0 131 -89 206l-260 -450q44 -18 98 -18zM253 145l260 449q-45 18 -98 18q-111 0 -181 -74.5t-70 -187.5q0 -130 89 -205z" />
    <glyph glyph-name="Ugrave" unicode="&#xd9;" horiz-adv-x="725" 
d="M80 282v399q0 19 19 19h68q19 0 19 -19v-388q0 -202 177 -202q176 0 176 202v388q0 19 19 19h68q19 0 19 -19v-399q0 -139 -75 -216q-76 -77 -207 -77t-207 77t-76 216zM228 917q3 7 15 7h77q13 0 23 -13l79 -116q4 -6 4 -11q0 -3 -2.5 -7.5t-14.5 -4.5h-60q-15 0 -23 11
l-94 118q-5 6 -5 12q0 2 1 4z" />
    <glyph glyph-name="Uacute" unicode="&#xda;" horiz-adv-x="725" 
d="M80 282v399q0 19 19 19h68q19 0 19 -19v-388q0 -202 177 -202q176 0 176 202v388q0 19 19 19h68q19 0 19 -19v-399q0 -139 -75 -216q-76 -77 -207 -77t-207 77t-76 216zM296 795l79 116q8 13 22 13h78q12 0 14 -4.5t2 -6.5q0 -5 -6 -12l-94 -118q-7 -11 -22 -11h-61
q-11 0 -13.5 4.5t-2.5 7.5q0 5 4 11z" />
    <glyph glyph-name="Ucircumflex" unicode="&#xdb;" horiz-adv-x="725" 
d="M80 282v399q0 19 19 19h68q19 0 19 -19v-388q0 -202 177 -202q176 0 176 202v388q0 19 19 19h68q19 0 19 -19v-399q0 -139 -75 -216q-76 -77 -207 -77t-207 77t-76 216zM201 795l103 118q11 11 24 11h68q13 0 24 -11l103 -118q6 -7 6 -12q0 -2 -2 -6.5t-14 -4.5h-57
q-15 0 -24 10l-69 80h-2l-69 -80q-9 -10 -23 -10h-58q-12 0 -14 4.5t-2 6.5q0 5 6 12z" />
    <glyph glyph-name="Udieresis" unicode="&#xdc;" horiz-adv-x="725" 
d="M80 282v399q0 19 19 19h68q19 0 19 -19v-388q0 -202 177 -202q176 0 176 202v388q0 19 19 19h68q19 0 19 -19v-399q0 -139 -75 -216q-76 -77 -207 -77t-207 77t-76 216zM209 898q18 18 47 18q28 0 46.5 -18.5t18.5 -47.5t-18.5 -48t-46.5 -19q-29 0 -47.5 19t-18.5 48
t19 48zM424 898q18 18 46 18q29 0 47.5 -18.5t18.5 -47.5t-18.5 -48t-47.5 -19q-28 0 -46.5 19t-18.5 48t19 48z" />
    <glyph glyph-name="Yacute" unicode="&#xdd;" horiz-adv-x="663" 
d="M22 694q4 6 15 6h77q14 0 23 -13l194 -308h1l194 308q7 13 22 13h77q11 0 14 -4.5t3 -7.5q0 -5 -4 -11l-253 -396v-262q0 -19 -19 -19h-69q-19 0 -19 19v262l-253 396q-4 6 -4 12q0 2 1 5zM265 795l79 116q8 13 22 13h78q12 0 14 -4.5t2 -6.5q0 -5 -6 -12l-94 -118
q-7 -11 -22 -11h-61q-11 0 -13.5 4.5t-2.5 7.5q0 5 4 11z" />
    <glyph glyph-name="Thorn" unicode="&#xde;" horiz-adv-x="664" 
d="M367 587q121 0 188.5 -61.5t67.5 -171.5t-67.5 -171.5t-188.5 -61.5h-173v-102q0 -19 -19 -19h-67q-19 0 -19 19v662q0 19 19 19h67q19 0 19 -19v-94h173zM359 219q154 0 154 135t-154 135h-165v-270h165z" />
    <glyph glyph-name="germandbls" unicode="&#xdf;" horiz-adv-x="612" 
d="M344 -6q-34 0 -64 6q-17 1 -17 20v51q0 20 21 17q19 -4 45 -4q68 0 104 29t36 83q0 109 -149 109h-34q-19 0 -19 19v54q0 19 14 19q72 0 110 33t38 89q0 102 -122 102q-68 0 -100.5 -34t-32.5 -105v-463q0 -19 -19 -19h-62q-19 0 -19 19v468q0 105 60.5 164.5t171.5 59.5
q105 0 164.5 -52t59.5 -135q0 -59 -31 -101.5t-90 -60.5v-3q79 -10 121 -55.5t42 -116.5q0 -87 -61 -140t-167 -53z" />
    <glyph glyph-name="agrave" unicode="&#xe0;" horiz-adv-x="613" 
d="M113 410q67 70 165 70q53 0 96 -21.5t64 -60.5h2v52q0 19 19 19h61q19 0 19 -19v-431q0 -19 -19 -19h-61q-19 0 -19 19v52h-2q-21 -38 -64 -60t-96 -22q-98 0 -165 70.5t-67 175.5q0 104 67 175zM189 124q40 -44 106 -44t106.5 44t40.5 111t-40.5 111t-106.5 44t-106 -44
q-41 -44 -41 -111t41 -111zM172 686q3 7 15 7h77q13 0 23 -13l79 -116q4 -6 4 -11q0 -3 -2.5 -7.5t-14.5 -4.5h-60q-15 0 -23 11l-94 118q-5 6 -5 12q0 2 1 4z" />
    <glyph glyph-name="aacute" unicode="&#xe1;" horiz-adv-x="613" 
d="M113 410q67 70 165 70q53 0 96 -21.5t64 -60.5h2v52q0 19 19 19h61q19 0 19 -19v-431q0 -19 -19 -19h-61q-19 0 -19 19v52h-2q-21 -38 -64 -60t-96 -22q-98 0 -165 70.5t-67 175.5q0 104 67 175zM189 124q40 -44 106 -44t106.5 44t40.5 111t-40.5 111t-106.5 44t-106 -44
q-41 -44 -41 -111t41 -111zM240 564l79 116q8 13 22 13h78q12 0 14 -4.5t2 -6.5q0 -5 -6 -12l-94 -118q-7 -11 -22 -11h-61q-11 0 -13.5 4.5t-2.5 7.5q0 5 4 11z" />
    <glyph glyph-name="acircumflex" unicode="&#xe2;" horiz-adv-x="613" 
d="M46 235q0 104 67 174.5t165 70.5q53 0 96 -21.5t64 -60.5h2v52q0 19 19 19h61q19 0 19 -19v-431q0 -19 -19 -19h-61q-19 0 -19 19v52h-2q-21 -38 -64 -60t-96 -22q-98 0 -165 70.5t-67 175.5zM148 235q0 -67 40.5 -111t106.5 -44t106.5 44t40.5 111t-40.5 111t-106.5 44
t-106 -44q-41 -44 -41 -111zM145 564l103 118q11 11 24 11h68q13 0 24 -11l103 -118q6 -7 6 -12q0 -2 -2 -6.5t-14 -4.5h-57q-15 0 -24 10l-69 80h-2l-69 -80q-9 -10 -23 -10h-58q-12 0 -14 4.5t-2 6.5q0 5 6 12z" />
    <glyph glyph-name="atilde" unicode="&#xe3;" horiz-adv-x="613" 
d="M113 410q67 70 165 70q53 0 96 -21.5t64 -60.5h2v52q0 19 19 19h61q19 0 19 -19v-431q0 -19 -19 -19h-61q-19 0 -19 19v52h-2q-21 -38 -64 -60t-96 -22q-98 0 -165 70.5t-67 175.5q0 104 67 175zM148 235q0 -67 40.5 -111t106.5 -44t106.5 44t40.5 111t-40.5 111
t-106.5 44t-106 -44q-41 -44 -41 -111zM137 566q4 58 29 89t67 31q7 0 13 -0.5t12 -2.5t10.5 -3t10.5 -4.5t9 -5t9.5 -6t8.5 -5.5t8.5 -6t7.5 -6q33 -25 48 -25q28 0 33 44q1 19 19 19h37q18 0 18 -19q0 -5 -1 -10q-4 -54 -29.5 -82.5t-65.5 -28.5q-38 0 -89 40
q-33 25 -48 25q-27 0 -33 -45q-2 -19 -19 -19h-37q-18 0 -18 17v3z" />
    <glyph glyph-name="adieresis" unicode="&#xe4;" horiz-adv-x="613" 
d="M46 235q0 104 67 174.5t165 70.5q53 0 96 -21.5t64 -60.5h2v52q0 19 19 19h61q19 0 19 -19v-431q0 -19 -19 -19h-61q-19 0 -19 19v52h-2q-21 -38 -64 -60t-96 -22q-98 0 -165 70.5t-67 175.5zM148 235q0 -67 40.5 -111t106.5 -44t106.5 44t40.5 111t-40.5 111t-106.5 44
t-106 -44q-41 -44 -41 -111zM134 619q0 29 18.5 47.5t47.5 18.5q28 0 46.5 -18.5t18.5 -47.5t-18.5 -48t-46.5 -19q-29 0 -47.5 19t-18.5 48zM349 619q0 29 18.5 47.5t46.5 18.5q29 0 47.5 -18.5t18.5 -47.5t-18.5 -48t-47.5 -19q-28 0 -46.5 19t-18.5 48z" />
    <glyph glyph-name="aring" unicode="&#xe5;" horiz-adv-x="613" 
d="M46 235q0 104 67 174.5t165 70.5q53 0 96 -21.5t64 -60.5h2v52q0 19 19 19h61q19 0 19 -19v-431q0 -19 -19 -19h-61q-19 0 -19 19v52h-2q-21 -38 -64 -60t-96 -22q-98 0 -165 70.5t-67 175.5zM189 124q40 -44 106 -44t106.5 44t40.5 111t-40.5 111t-106.5 44t-106 -44
q-41 -44 -41 -111t41 -111zM219 734q36 34 88 34t88 -34t36 -83t-36 -82q-36 -34 -88 -34t-88 33.5t-36 82.5t36 83zM252 651q0 -24 15 -39.5t40 -15.5t40 15.5t15 39.5t-15 40q-15 15 -40 15t-40 -15.5t-15 -39.5z" />
    <glyph glyph-name="ae" unicode="&#xe6;" horiz-adv-x="914" 
d="M40 134q0 66 49 102t147 36h149v10q0 59 -27 87t-86 28q-88 0 -105 -55q-6 -17 -21 -17h-62q-9 0 -14 5t-5 10q0 3 1 5q11 64 63 99.5t140 35.5q130 0 175 -79h3q64 79 182 79q106 0 172.5 -66.5t66.5 -176.5v-10q0 -24 -23 -24h-359q15 -131 148 -131q94 0 123 57
q7 15 22 15h58q10 0 14 -4.5t4 -9.5q0 -3 -2 -7q-20 -59 -78.5 -96.5t-142.5 -37.5q-134 0 -198 94h-3q-54 -94 -200 -94q-91 0 -141 38.5t-50 106.5zM767 275q-18 123 -138 123q-122 0 -142 -123h280zM238 71q65 0 106 31t41 77v23h-141q-105 0 -105 -64q0 -67 99 -67z" />
    <glyph glyph-name="ccedilla" unicode="&#xe7;" horiz-adv-x="569" 
d="M46 235q0 105 68.5 175t177.5 70q89 0 151.5 -46.5t77.5 -122.5v-5q0 -15 -18 -15h-65q-16 0 -21 16q-13 40 -45.5 61.5t-78.5 21.5q-66 0 -105.5 -43.5t-39.5 -111.5q0 -69 39.5 -112t105.5 -43q45 0 77.5 21t45.5 60q5 17 21 17h65q9 0 14 -4.5t5 -9.5q0 -3 -1 -5
q-12 -65 -60.5 -109.5t-119.5 -56.5l-48 -156q-4 -16 -21 -16h-62q-17 0 -17 12q0 4 2 9l53 151q-91 14 -146 81.5t-55 160.5z" />
    <glyph glyph-name="egrave" unicode="&#xe8;" horiz-adv-x="574" 
d="M46 234q0 109 67.5 177.5t176.5 68.5q106 0 172.5 -66.5t66.5 -176.5v-11q0 -23 -23 -23h-359q7 -65 45 -98t102 -33q46 0 78.5 15.5t45.5 41.5q8 15 22 15h58q10 0 14.5 -3.5t4.5 -7.5q0 -2 -1 -4q-20 -62 -78.5 -101t-144.5 -39q-112 0 -179.5 68t-67.5 177zM148 276
h279q-18 122 -137 122q-58 0 -95 -31.5t-47 -90.5zM155 686q3 7 15 7h77q13 0 23 -13l79 -116q4 -6 4 -11q0 -3 -2.5 -7.5t-14.5 -4.5h-60q-15 0 -23 11l-94 118q-5 6 -5 12q0 2 1 4z" />
    <glyph glyph-name="eacute" unicode="&#xe9;" horiz-adv-x="574" 
d="M114 412q67 68 176 68q106 0 172.5 -66.5t66.5 -176.5v-11q0 -23 -23 -23h-359q7 -65 45 -98t102 -33q46 0 78.5 15.5t45.5 41.5q8 15 22 15h58q10 0 14.5 -3.5t4.5 -7.5q0 -2 -1 -4q-20 -62 -78.5 -101t-144.5 -39q-112 0 -179.5 68t-67.5 177t68 178zM427 276
q-18 122 -137 122q-58 0 -95 -31.5t-47 -90.5h279zM222 564l79 116q8 13 22 13h78q12 0 14 -4.5t2 -6.5q0 -5 -6 -12l-94 -118q-7 -11 -22 -11h-61q-11 0 -13.5 4.5t-2.5 7.5q0 5 4 11z" />
    <glyph glyph-name="ecircumflex" unicode="&#xea;" horiz-adv-x="574" 
d="M46 234q0 109 67.5 177.5t176.5 68.5q106 0 172.5 -66.5t66.5 -176.5v-11q0 -23 -23 -23h-359q7 -65 45 -98t102 -33q46 0 78.5 15.5t45.5 41.5q8 15 22 15h58q10 0 14.5 -3.5t4.5 -7.5q0 -2 -1 -4q-20 -62 -78.5 -101t-144.5 -39q-112 0 -179.5 68t-67.5 177zM148 276
h279q-18 122 -137 122q-58 0 -95 -31.5t-47 -90.5zM128 564l103 118q11 11 24 11h68q13 0 24 -11l103 -118q6 -7 6 -12q0 -2 -2 -6.5t-14 -4.5h-57q-15 0 -24 10l-69 80h-2l-69 -80q-9 -10 -23 -10h-58q-12 0 -14 4.5t-2 6.5q0 5 6 12z" />
    <glyph glyph-name="edieresis" unicode="&#xeb;" horiz-adv-x="574" 
d="M46 234q0 109 67.5 177.5t176.5 68.5q106 0 172.5 -66.5t66.5 -176.5v-11q0 -23 -23 -23h-359q7 -65 45 -98t102 -33q46 0 78.5 15.5t45.5 41.5q8 15 22 15h58q10 0 14.5 -3.5t4.5 -7.5q0 -2 -1 -4q-20 -62 -78.5 -101t-144.5 -39q-112 0 -179.5 68t-67.5 177zM427 276
q-18 122 -137 122q-58 0 -95 -31.5t-47 -90.5h279zM116 619q0 29 18.5 47.5t47.5 18.5q28 0 46.5 -18.5t18.5 -47.5t-18.5 -48t-46.5 -19q-29 0 -47.5 19t-18.5 48zM331 619q0 29 18.5 47.5t46.5 18.5q29 0 47.5 -18.5t18.5 -47.5t-18.5 -48t-47.5 -19q-28 0 -46.5 19
t-18.5 48z" />
    <glyph glyph-name="igrave" unicode="&#xec;" horiz-adv-x="247" 
d="M74 19v431q0 19 19 19h62q19 0 19 -19v-431q0 -19 -19 -19h-62q-19 0 -19 19zM16 686q3 7 14 7h68q15 0 23 -14l63 -116q3 -5 3 -9t-3 -8.5t-14 -4.5h-59q-15 0 -23 12l-71 117q-3 5 -3 9t2 7z" />
    <glyph glyph-name="iacute" unicode="&#xed;" horiz-adv-x="247" 
d="M74 19v431q0 19 19 19h62q19 0 19 -19v-431q0 -19 -19 -19h-62q-19 0 -19 19zM61 563l62 116q8 14 23 14h68q11 0 13.5 -5t2.5 -8q0 -5 -3 -10l-71 -117q-8 -12 -23 -12h-59q-11 0 -14 4.5t-3 7.5q0 5 4 10z" />
    <glyph glyph-name="icircumflex" unicode="&#xee;" horiz-adv-x="247" 
d="M93 469h62q19 0 19 -19v-431q0 -19 -19 -19h-62q-19 0 -19 19v431q0 19 19 19zM-11 563l78 118q9 12 23 12h68q14 0 22 -12l79 -118q4 -6 4 -10q0 -3 -2.5 -7.5t-13.5 -4.5h-47q-14 0 -23 12l-52 80h-3l-52 -80q-8 -12 -23 -12h-46q-11 0 -13.5 4.5t-2.5 7.5q0 4 4 10z
" />
    <glyph glyph-name="idieresis" unicode="&#xef;" horiz-adv-x="247" 
d="M93 469h62q19 0 19 -19v-431q0 -19 -19 -19h-62q-19 0 -19 19v431q0 19 19 19zM172 667q16 18 43 18t43 -18.5t16 -47.5q0 -30 -16 -48q-16 -19 -43 -19t-43 18.5t-16 48.5q0 29 16 48zM-27 619q0 29 16 47.5t43 18.5t43 -18.5t16 -47.5q0 -30 -16 -48q-16 -19 -43 -19
t-43 18.5t-16 48.5z" />
    <glyph glyph-name="eth" unicode="&#xf0;" horiz-adv-x="590" 
d="M398 621q146 -138 146 -363q0 -125 -70.5 -197t-178.5 -72q-105 0 -177 69.5t-72 171.5q0 101 71 168.5t176 67.5q79 0 128 -39q-26 86 -93 146l-88 -61q-15 -11 -26 4l-12 18q-11 14 4 26l72 50q-40 27 -101 52q-17 8 -11 25l18 39q6 18 25 11q77 -29 142 -76l88 61
q15 11 26 -5l13 -19q10 -15 -5 -25zM295 80q66 0 106.5 42.5t40.5 107.5t-40.5 107t-106.5 42t-106.5 -42t-40.5 -107t40.5 -107.5t106.5 -42.5z" />
    <glyph glyph-name="ntilde" unicode="&#xf1;" horiz-adv-x="586" 
d="M93 469h60q19 0 19 -19v-53h3q41 83 159 83q87 0 136.5 -52t49.5 -145v-264q0 -19 -19 -19h-62q-19 0 -19 19v240q0 130 -114 130q-61 0 -96.5 -36t-35.5 -97v-237q0 -19 -19 -19h-62q-19 0 -19 19v431q0 19 19 19zM127 566q4 58 29 89t67 31q7 0 13 -0.5t12 -2.5
t10.5 -3t10.5 -4.5t9 -5t9.5 -6t8.5 -5.5t8.5 -6t7.5 -6q33 -25 48 -25q28 0 33 44q1 19 19 19h37q18 0 18 -19q0 -5 -1 -10q-4 -54 -29.5 -82.5t-65.5 -28.5q-38 0 -89 40q-33 25 -48 25q-27 0 -33 -45q-2 -19 -19 -19h-37q-18 0 -18 17v3z" />
    <glyph glyph-name="ograve" unicode="&#xf2;" horiz-adv-x="590" 
d="M118 410q71 70 177 70t177.5 -70.5t71.5 -174.5t-71 -175q-72 -71 -178 -71t-177.5 71t-71.5 175t72 175zM189 124q40 -44 106 -44t106.5 44t40.5 111t-40.5 111t-106.5 44t-106.5 -44t-40.5 -111t41 -111zM161 686q3 7 15 7h77q13 0 23 -13l79 -116q4 -6 4 -11
q0 -3 -2.5 -7.5t-14.5 -4.5h-60q-15 0 -23 11l-94 118q-5 6 -5 12q0 2 1 4z" />
    <glyph glyph-name="oacute" unicode="&#xf3;" horiz-adv-x="590" 
d="M46 235q0 104 71.5 174.5t177.5 70.5t177.5 -70.5t71.5 -174.5t-71 -175q-72 -71 -178 -71t-177.5 71t-71.5 175zM148 235q0 -67 41 -111q40 -44 106 -44t106.5 44t40.5 111t-40.5 111t-106.5 44t-106.5 -44t-40.5 -111zM228 564l79 116q8 13 22 13h78q12 0 14 -4.5
t2 -6.5q0 -5 -6 -12l-94 -118q-7 -11 -22 -11h-61q-11 0 -13.5 4.5t-2.5 7.5q0 5 4 11z" />
    <glyph glyph-name="ocircumflex" unicode="&#xf4;" horiz-adv-x="590" 
d="M46 235q0 104 71.5 174.5t177.5 70.5t177.5 -70.5t71.5 -174.5t-71 -175q-72 -71 -178 -71t-177.5 71t-71.5 175zM148 235q0 -67 41 -111q40 -44 106 -44t106.5 44t40.5 111t-40.5 111t-106.5 44t-106.5 -44t-40.5 -111zM134 564l103 118q11 11 24 11h68q13 0 24 -11
l103 -118q6 -7 6 -12q0 -2 -2 -6.5t-14 -4.5h-57q-15 0 -24 10l-69 80h-2l-69 -80q-9 -10 -23 -10h-58q-12 0 -14 4.5t-2 6.5q0 5 6 12z" />
    <glyph glyph-name="otilde" unicode="&#xf5;" horiz-adv-x="590" 
d="M46 235q0 104 71.5 174.5t177.5 70.5t177.5 -70.5t71.5 -174.5t-71 -175q-72 -71 -178 -71t-177.5 71t-71.5 175zM148 235q0 -67 41 -111q40 -44 106 -44t106.5 44t40.5 111t-40.5 111t-106.5 44t-106.5 -44t-40.5 -111zM125 566q4 58 29 89t67 31q7 0 13 -0.5t12 -2.5
t10.5 -3t10.5 -4.5t9 -5t9.5 -6t8.5 -5.5t8.5 -6t7.5 -6q33 -25 48 -25q28 0 33 44q1 19 19 19h37q18 0 18 -19q0 -5 -1 -10q-4 -54 -29.5 -82.5t-65.5 -28.5q-38 0 -89 40q-33 25 -48 25q-27 0 -33 -45q-2 -19 -19 -19h-37q-18 0 -18 17v3z" />
    <glyph glyph-name="odieresis" unicode="&#xf6;" horiz-adv-x="590" 
d="M46 235q0 104 71.5 174.5t177.5 70.5t177.5 -70.5t71.5 -174.5t-71 -175q-72 -71 -178 -71t-177.5 71t-71.5 175zM148 235q0 -67 41 -111q40 -44 106 -44t106.5 44t40.5 111t-40.5 111t-106.5 44t-106.5 -44t-40.5 -111zM122 619q0 29 18.5 47.5t47.5 18.5
q28 0 46.5 -18.5t18.5 -47.5t-18.5 -48t-46.5 -19q-29 0 -47.5 19t-18.5 48zM337 619q0 29 18.5 47.5t46.5 18.5q29 0 47.5 -18.5t18.5 -47.5t-18.5 -48t-47.5 -19q-28 0 -46.5 19t-18.5 48z" />
    <glyph glyph-name="divide" unicode="&#xf7;" 
d="M300 433q-29 0 -47.5 18.5t-18.5 46.5t18.5 46t47.5 18t47.5 -18t18.5 -46t-18.5 -46.5t-47.5 -18.5zM97 273q-19 0 -19 19v50q0 19 19 19h406q19 0 19 -19v-50q0 -19 -19 -19h-406zM300 72q-29 0 -47.5 18t-18.5 46t18.5 46.5t47.5 18.5t47.5 -18.5t18.5 -46.5
t-18.5 -46t-47.5 -18z" />
    <glyph glyph-name="oslash" unicode="&#xf8;" horiz-adv-x="590" 
d="M46 235q0 104 71.5 174.5t177.5 70.5q47 0 92 -16l35 60q6 11 15 11q5 0 11 -4l27 -16q10 -6 10 -15q0 -5 -3 -11l-34 -59q96 -72 96 -195q0 -104 -71.5 -175t-177.5 -71q-47 0 -92 16l-35 -60q-6 -10 -15 -10q-5 0 -11 3l-27 16q-10 6 -10 15q0 5 3 11l34 59
q-96 72 -96 196zM191 114l157 271q-24 9 -53 9q-68 0 -110 -45t-42 -114q0 -76 48 -121zM295 75q67 0 109 45.5t42 114.5q0 75 -48 120l-156 -272q26 -8 53 -8z" />
    <glyph glyph-name="ugrave" unicode="&#xf9;" horiz-adv-x="583" 
d="M67 450q0 19 19 19h62q19 0 19 -19v-240q0 -130 110 -130q60 0 96 36t36 97v237q0 19 19 19h62q19 0 19 -19v-431q0 -19 -19 -19h-60q-19 0 -19 19v54h-3q-19 -40 -61 -62t-98 -22q-86 0 -134 52t-48 145v264zM153 686q3 7 15 7h77q13 0 23 -13l79 -116q4 -6 4 -11
q0 -3 -2.5 -7.5t-14.5 -4.5h-60q-15 0 -23 11l-94 118q-5 6 -5 12q0 2 1 4z" />
    <glyph glyph-name="uacute" unicode="&#xfa;" horiz-adv-x="583" 
d="M86 469h62q19 0 19 -19v-240q0 -130 110 -130q60 0 96 36t36 97v237q0 19 19 19h62q19 0 19 -19v-431q0 -19 -19 -19h-60q-19 0 -19 19v54h-3q-19 -40 -61 -62t-98 -22q-86 0 -134 52t-48 145v264q0 19 19 19zM221 564l79 116q8 13 22 13h78q12 0 14 -4.5t2 -6.5
q0 -5 -6 -12l-94 -118q-7 -11 -22 -11h-61q-11 0 -13.5 4.5t-2.5 7.5q0 5 4 11z" />
    <glyph glyph-name="ucircumflex" unicode="&#xfb;" horiz-adv-x="583" 
d="M67 450q0 19 19 19h62q19 0 19 -19v-240q0 -130 110 -130q60 0 96 36t36 97v237q0 19 19 19h62q19 0 19 -19v-431q0 -19 -19 -19h-60q-19 0 -19 19v54h-3q-19 -40 -61 -62t-98 -22q-86 0 -134 52t-48 145v264zM126 564l103 118q11 11 24 11h68q13 0 24 -11l103 -118
q6 -7 6 -12q0 -2 -2 -6.5t-14 -4.5h-57q-15 0 -24 10l-69 80h-2l-69 -80q-9 -10 -23 -10h-58q-12 0 -14 4.5t-2 6.5q0 5 6 12z" />
    <glyph glyph-name="udieresis" unicode="&#xfc;" horiz-adv-x="583" 
d="M67 186v264q0 19 19 19h62q19 0 19 -19v-240q0 -130 110 -130q60 0 96 36t36 97v237q0 19 19 19h62q19 0 19 -19v-431q0 -19 -19 -19h-60q-19 0 -19 19v54h-3q-19 -40 -61 -62t-98 -22q-86 0 -134 52t-48 145zM330 619q0 29 18.5 47.5t46.5 18.5q29 0 47.5 -18.5
t18.5 -47.5t-18.5 -48t-47.5 -19q-28 0 -46.5 19t-18.5 48zM115 619q0 29 18.5 47.5t47.5 18.5q28 0 46.5 -18.5t18.5 -47.5t-18.5 -48t-46.5 -19q-29 0 -47.5 19t-18.5 48z" />
    <glyph glyph-name="yacute" unicode="&#xfd;" horiz-adv-x="586" 
d="M84 -62h61q15 0 21 -17q21 -63 117 -63q133 0 133 136v89h-4q-19 -38 -60.5 -60.5t-98.5 -22.5q-87 0 -135.5 52t-48.5 143v255q0 19 19 19h62q19 0 19 -19v-230q0 -130 112 -130q59 0 95.5 36t36.5 97v227q0 19 19 19h62q19 0 19 -19v-456q0 -105 -61 -163t-169 -58
q-92 0 -148.5 39.5t-68.5 106.5q-1 3 -1 6q0 13 19 13zM223 564l79 116q8 13 22 13h78q12 0 14 -4.5t2 -6.5q0 -5 -6 -12l-94 -118q-7 -11 -22 -11h-61q-11 0 -13.5 4.5t-2.5 7.5q0 5 4 11z" />
    <glyph glyph-name="thorn" unicode="&#xfe;" horiz-adv-x="613" 
d="M336 480q98 0 164.5 -70.5t66.5 -174.5q0 -105 -66.5 -175.5t-164.5 -70.5q-52 0 -95 22t-63 60h-4v-268q0 -19 -19 -19h-62q-19 0 -19 19v878q0 19 19 19h62q19 0 19 -19v-283h4q20 38 63 60t95 22zM318 80q66 0 106.5 44t40.5 111t-40.5 111t-106.5 44t-106.5 -44
t-40.5 -111t40.5 -111t106.5 -44z" />
    <glyph glyph-name="ydieresis" unicode="&#xff;" horiz-adv-x="586" 
d="M84 -62h61q15 0 21 -17q21 -63 117 -63q133 0 133 136v89h-4q-19 -38 -60.5 -60.5t-98.5 -22.5q-87 0 -135.5 52t-48.5 143v255q0 19 19 19h62q19 0 19 -19v-230q0 -130 112 -130q59 0 95.5 36t36.5 97v227q0 19 19 19h62q19 0 19 -19v-456q0 -105 -61 -163t-169 -58
q-92 0 -148.5 39.5t-68.5 106.5q-1 3 -1 6q0 13 19 13zM117 619q0 29 18.5 47.5t47.5 18.5q28 0 46.5 -18.5t18.5 -47.5t-18.5 -48t-46.5 -19q-29 0 -47.5 19t-18.5 48zM332 619q0 29 18.5 47.5t46.5 18.5q29 0 47.5 -18.5t18.5 -47.5t-18.5 -48t-47.5 -19q-28 0 -46.5 19
t-18.5 48z" />
    <glyph glyph-name="Amacron" unicode="&#x100;" horiz-adv-x="713" 
d="M24 22l274 664q6 14 22 14h72q18 0 22 -14l275 -664q2 -6 2 -10q0 -12 -17 -12h-71q-17 0 -21 14l-55 137h-341l-55 -137q-6 -14 -22 -14h-70q-17 0 -17 12q0 4 2 10zM489 246l-131 328h-3l-131 -328h265zM207 814v43q0 19 19 19h262q19 0 19 -19v-43q0 -19 -19 -19h-262
q-19 0 -19 19z" />
    <glyph glyph-name="amacron" unicode="&#x101;" horiz-adv-x="613" 
d="M46 235q0 104 67 174.5t165 70.5q53 0 96 -21.5t64 -60.5h2v52q0 19 19 19h61q19 0 19 -19v-431q0 -19 -19 -19h-61q-19 0 -19 19v52h-2q-21 -38 -64 -60t-96 -22q-98 0 -165 70.5t-67 175.5zM148 235q0 -67 40.5 -111t106.5 -44t106.5 44t40.5 111t-40.5 111t-106.5 44
t-106 -44q-41 -44 -41 -111zM157 626q0 19 19 19h262q19 0 19 -19v-43q0 -19 -19 -19h-262q-19 0 -19 19v43z" />
    <glyph glyph-name="Abreve" unicode="&#x102;" horiz-adv-x="713" 
d="M24 22l274 664q6 14 22 14h72q18 0 22 -14l275 -664q2 -6 2 -10q0 -12 -17 -12h-71q-17 0 -21 14l-55 137h-341l-55 -137q-6 -14 -22 -14h-70q-17 0 -17 12q0 4 2 10zM224 246h265l-131 328h-3zM220 916h48q17 0 20 -18q9 -59 69 -59t69 59q3 18 20 18h48q19 0 19 -19
q0 -54 -42 -90q-43 -37 -114 -37t-113.5 36.5t-42.5 90.5q0 19 19 19z" />
    <glyph glyph-name="abreve" unicode="&#x103;" horiz-adv-x="613" 
d="M113 410q67 70 165 70q53 0 96 -21.5t64 -60.5h2v52q0 19 19 19h61q19 0 19 -19v-431q0 -19 -19 -19h-61q-19 0 -19 19v52h-2q-21 -38 -64 -60t-96 -22q-98 0 -165 70.5t-67 175.5q0 104 67 175zM189 124q40 -44 106 -44t106.5 44t40.5 111t-40.5 111t-106.5 44t-106 -44
q-41 -44 -41 -111t41 -111zM151 666q0 19 19 19h48q17 0 20 -18q9 -59 69 -59t69 59q3 18 20 18h48q19 0 19 -19q0 -54 -42 -90q-43 -37 -114 -37t-113.5 36.5t-42.5 90.5z" />
    <glyph glyph-name="Aogonek" unicode="&#x104;" horiz-adv-x="713" 
d="M24 22l274 664q6 14 22 14h72q18 0 22 -14l275 -666q4 -8 4 -14q0 -10 -9 -14q-83 -55 -83 -93q0 -37 54 -37q14 0 22 1h5q16 0 16 -16v-40q0 -18 -18 -21q-19 -3 -38 -3q-57 0 -91 27t-34 70q0 74 87 120q-17 1 -22 14l-55 137h-341l-55 -137q-6 -14 -22 -14h-70
q-17 0 -17 12q0 4 2 10zM489 246l-131 328h-3l-131 -328h265z" />
    <glyph glyph-name="aogonek" unicode="&#x105;" horiz-adv-x="613" 
d="M113 410q67 70 165 70q53 0 96 -21.5t64 -60.5h2v52q0 19 19 19h61q19 0 19 -19v-431q0 -5 -1 -8q-2 -12 -13 -19q-47 -31 -65.5 -52t-18.5 -41q0 -37 54 -37q14 0 23 1h5q15 0 15 -16v-40q0 -18 -18 -21q-20 -3 -38 -3q-56 0 -90 27t-34 70q0 75 91 122q-9 4 -9 17v52
h-2q-21 -38 -64 -60t-96 -22q-98 0 -165 70.5t-67 175.5q0 104 67 175zM148 235q0 -67 40.5 -111t106.5 -44t106.5 44t40.5 111t-40.5 111t-106.5 44t-106 -44q-41 -44 -41 -111z" />
    <glyph glyph-name="Cacute" unicode="&#x106;" horiz-adv-x="805" 
d="M158 607q102 104 258 104q123 0 213 -67.5t116 -184.5q1 -4 1 -7q0 -14 -17 -14h-73q-16 0 -21 17q-19 73 -77.5 114.5t-141.5 41.5q-112 0 -181.5 -72.5t-69.5 -188.5t69.5 -188.5t181.5 -72.5q83 0 141.5 41.5t77.5 114.5q5 17 21 17h73q17 0 17 -14q0 -4 -1 -8
q-26 -117 -116.5 -184t-212.5 -67q-156 0 -258 104.5t-102 256.5t102 257zM349 795l79 116q8 13 22 13h78q12 0 14 -4.5t2 -6.5q0 -5 -6 -12l-94 -118q-7 -11 -22 -11h-61q-11 0 -13.5 4.5t-2.5 7.5q0 5 4 11z" />
    <glyph glyph-name="cacute" unicode="&#x107;" horiz-adv-x="569" 
d="M115 410q68 70 177 70q89 0 151.5 -46.5t77.5 -122.5v-5q0 -15 -18 -15h-65q-16 0 -21 16q-13 40 -45.5 61.5t-78.5 21.5q-66 0 -105.5 -43.5t-39.5 -111.5q0 -69 39.5 -112t105.5 -43q45 0 77.5 21t45.5 60q5 17 21 17h65q9 0 14 -4.5t5 -9.5q0 -3 -1 -5
q-14 -76 -76.5 -123t-151.5 -47q-109 0 -177.5 70.5t-68.5 175.5t69 175zM227 564l79 116q8 13 22 13h78q12 0 14 -4.5t2 -6.5q0 -5 -6 -12l-94 -118q-7 -11 -22 -11h-61q-11 0 -13.5 4.5t-2.5 7.5q0 5 4 11z" />
    <glyph glyph-name="Ccircumflex" unicode="&#x108;" horiz-adv-x="805" 
d="M158 607q102 104 258 104q123 0 213 -67.5t116 -184.5q1 -4 1 -7q0 -14 -17 -14h-73q-16 0 -21 17q-19 73 -77.5 114.5t-141.5 41.5q-112 0 -181.5 -72.5t-69.5 -188.5t69.5 -188.5t181.5 -72.5q83 0 141.5 41.5t77.5 114.5q5 17 21 17h73q17 0 17 -14q0 -4 -1 -8
q-26 -117 -116.5 -184t-212.5 -67q-156 0 -258 104.5t-102 256.5t102 257zM255 795l103 118q11 11 24 11h68q13 0 24 -11l103 -118q6 -7 6 -12q0 -2 -2 -6.5t-14 -4.5h-57q-15 0 -24 10l-69 80h-2l-69 -80q-9 -10 -23 -10h-58q-12 0 -14 4.5t-2 6.5q0 5 6 12z" />
    <glyph glyph-name="ccircumflex" unicode="&#x109;" horiz-adv-x="569" 
d="M46 235q0 105 68.5 175t177.5 70q89 0 151.5 -46.5t77.5 -122.5v-5q0 -15 -18 -15h-65q-16 0 -21 16q-13 40 -45.5 61.5t-78.5 21.5q-66 0 -105.5 -43.5t-39.5 -111.5q0 -69 39.5 -112t105.5 -43q45 0 77.5 21t45.5 60q5 17 21 17h65q9 0 14 -4.5t5 -9.5q0 -3 -1 -5
q-14 -76 -76.5 -123t-151.5 -47q-109 0 -177.5 70.5t-68.5 175.5zM132 564l103 118q11 11 24 11h68q13 0 24 -11l103 -118q6 -7 6 -12q0 -2 -2 -6.5t-14 -4.5h-57q-15 0 -24 10l-69 80h-2l-69 -80q-9 -10 -23 -10h-58q-12 0 -14 4.5t-2 6.5q0 5 6 12z" />
    <glyph glyph-name="Cdotaccent" unicode="&#x10a;" horiz-adv-x="805" 
d="M56 350q0 152 102 256.5t258 104.5q123 0 213 -67.5t116 -184.5q1 -4 1 -7q0 -14 -17 -14h-73q-16 0 -21 17q-19 73 -77.5 114.5t-141.5 41.5q-112 0 -181.5 -72.5t-69.5 -188.5t69.5 -188.5t181.5 -72.5q83 0 141.5 41.5t77.5 114.5q5 17 21 17h73q17 0 17 -14
q0 -4 -1 -8q-26 -117 -116.5 -184t-212.5 -67q-156 0 -258 104.5t-102 256.5zM347 851q0 30 19.5 49t49.5 19t49.5 -19t19.5 -49q0 -29 -20 -48q-20 -20 -49 -20t-49 19.5t-20 48.5z" />
    <glyph glyph-name="cdotaccent" unicode="&#x10b;" horiz-adv-x="569" 
d="M46 235q0 105 68.5 175t177.5 70q89 0 151.5 -46.5t77.5 -122.5v-5q0 -15 -18 -15h-65q-16 0 -21 16q-13 40 -45.5 61.5t-78.5 21.5q-66 0 -105.5 -43.5t-39.5 -111.5q0 -69 39.5 -112t105.5 -43q45 0 77.5 21t45.5 60q5 17 21 17h65q9 0 14 -4.5t5 -9.5q0 -3 -1 -5
q-14 -76 -76.5 -123t-151.5 -47q-109 0 -177.5 70.5t-68.5 175.5zM244 669q19 19 49 19t49.5 -19t19.5 -49q0 -29 -20 -48q-20 -20 -49 -20t-49 19.5t-20 48.5q0 30 20 49z" />
    <glyph glyph-name="Ccaron" unicode="&#x10c;" horiz-adv-x="805" 
d="M56 350q0 152 102 256.5t258 104.5q123 0 213 -67.5t116 -184.5q1 -4 1 -7q0 -14 -17 -14h-73q-16 0 -21 17q-19 73 -77.5 114.5t-141.5 41.5q-112 0 -181.5 -72.5t-69.5 -188.5t69.5 -188.5t181.5 -72.5q83 0 141.5 41.5t77.5 114.5q5 17 21 17h73q17 0 17 -14
q0 -4 -1 -8q-26 -117 -116.5 -184t-212.5 -67q-156 0 -258 104.5t-102 256.5zM250 917q3 7 15 7h57q16 0 24 -11l69 -80h2l69 80q8 11 24 11h57q12 0 14 -5t2 -7q0 -5 -6 -12l-103 -118q-10 -10 -24 -10h-68q-14 0 -24 10l-103 118q-6 7 -6 13q0 2 1 4z" />
    <glyph glyph-name="ccaron" unicode="&#x10d;" horiz-adv-x="569" 
d="M46 235q0 105 68.5 175t177.5 70q89 0 151.5 -46.5t77.5 -122.5v-5q0 -15 -18 -15h-65q-16 0 -21 16q-13 40 -45.5 61.5t-78.5 21.5q-66 0 -105.5 -43.5t-39.5 -111.5q0 -69 39.5 -112t105.5 -43q45 0 77.5 21t45.5 60q5 17 21 17h65q9 0 14 -4.5t5 -9.5q0 -3 -1 -5
q-14 -76 -76.5 -123t-151.5 -47q-109 0 -177.5 70.5t-68.5 175.5zM127 686q3 7 15 7h57q16 0 24 -11l69 -80h2l69 80q8 11 24 11h57q12 0 14 -5t2 -7q0 -5 -6 -12l-103 -118q-10 -10 -24 -10h-68q-14 0 -24 10l-103 118q-6 7 -6 13q0 2 1 4z" />
    <glyph glyph-name="Dcaron" unicode="&#x10e;" horiz-adv-x="728" 
d="M108 700h202q161 0 261.5 -98t100.5 -252t-100.5 -252t-261.5 -98h-202q-19 0 -19 19v662q0 19 19 19zM194 601v-502h113q119 0 187 68t68 183t-68 183t-187 68h-113zM157 917q3 7 15 7h57q16 0 24 -11l69 -80h2l69 80q8 11 24 11h57q12 0 14 -5t2 -7q0 -5 -6 -12
l-103 -118q-10 -10 -24 -10h-68q-14 0 -24 10l-103 118q-6 7 -6 13q0 2 1 4z" />
    <glyph glyph-name="dcaron" unicode="&#x10f;" horiz-adv-x="742" 
d="M113 410q67 70 164 70q52 0 95 -22t63 -60h4v283q0 19 19 19h62q19 0 19 -19v-662q0 -19 -19 -19h-60q-19 0 -19 19v52h-3q-21 -38 -64 -60t-96 -22q-98 0 -165 70.5t-67 175.5q0 104 67 175zM148 235q0 -67 40.5 -111t106.5 -44t106.5 44t40.5 111t-40.5 111t-106.5 44
t-106 -44q-41 -44 -41 -111zM653 711h64q19 0 19 -17v-3l-13 -240q-1 -18 -19 -18h-51q-19 0 -19 19v240q0 19 19 19z" />
    <glyph glyph-name="Dcroat" unicode="&#x110;" horiz-adv-x="744" 
d="M28 391h77v290q0 19 19 19h202q161 0 261.5 -98t100.5 -252t-100.5 -252t-261.5 -98h-202q-19 0 -19 19v289h-77q-19 0 -19 19v45q0 19 19 19zM210 99h113q119 0 187 68t68 183t-68 183t-187 68h-113v-210h146q19 0 19 -19v-45q0 -19 -19 -19h-146v-209z" />
    <glyph glyph-name="dcroat" unicode="&#x111;" horiz-adv-x="623" 
d="M612 606q19 0 19 -19v-35q0 -19 -19 -19h-73v-514q0 -19 -19 -19h-60q-19 0 -19 19v52h-3q-21 -38 -64 -60t-96 -22q-98 0 -165 69.5t-67 169.5q0 99 67 168.5t164 69.5q52 0 95 -22t63 -60h4v149h-155q-19 0 -19 19v35q0 19 19 19h155v75q0 19 19 19h62q19 0 19 -19v-75
h73zM148 228q0 -64 40.5 -106.5t106.5 -42.5t106.5 42.5t40.5 106.5q0 63 -41 105.5t-106 42.5t-106 -42.5t-41 -105.5z" />
    <glyph glyph-name="Emacron" unicode="&#x112;" horiz-adv-x="629" 
d="M89 19v662q0 19 19 19h442q19 0 19 -19v-60q0 -19 -19 -19h-356v-204h282q19 0 19 -19v-58q0 -19 -19 -19h-282v-204h360q19 0 19 -19v-60q0 -19 -19 -19h-446q-19 0 -19 19zM177 857q0 19 19 19h262q19 0 19 -19v-43q0 -19 -19 -19h-262q-19 0 -19 19v43z" />
    <glyph glyph-name="emacron" unicode="&#x113;" horiz-adv-x="574" 
d="M46 234q0 109 67.5 177.5t176.5 68.5q106 0 172.5 -66.5t66.5 -176.5v-11q0 -23 -23 -23h-359q7 -65 45 -98t102 -33q46 0 78.5 15.5t45.5 41.5q8 15 22 15h58q10 0 14.5 -3.5t4.5 -7.5q0 -2 -1 -4q-20 -62 -78.5 -101t-144.5 -39q-112 0 -179.5 68t-67.5 177zM148 276
h279q-18 122 -137 122q-58 0 -95 -31.5t-47 -90.5zM139 583v43q0 19 19 19h262q19 0 19 -19v-43q0 -19 -19 -19h-262q-19 0 -19 19z" />
    <glyph glyph-name="Ebreve" unicode="&#x114;" horiz-adv-x="629" 
d="M108 700h442q19 0 19 -19v-60q0 -19 -19 -19h-356v-204h282q19 0 19 -19v-58q0 -19 -19 -19h-282v-204h360q19 0 19 -19v-60q0 -19 -19 -19h-446q-19 0 -19 19v662q0 19 19 19zM171 897q0 19 19 19h48q17 0 20 -18q9 -59 69 -59t69 59q3 18 20 18h48q19 0 19 -19
q0 -54 -42 -90q-43 -37 -114 -37t-113.5 36.5t-42.5 90.5z" />
    <glyph glyph-name="ebreve" unicode="&#x115;" horiz-adv-x="574" 
d="M46 234q0 109 67.5 177.5t176.5 68.5q106 0 172.5 -66.5t66.5 -176.5v-11q0 -23 -23 -23h-359q7 -65 45 -98t102 -33q46 0 78.5 15.5t45.5 41.5q8 15 22 15h58q10 0 14.5 -3.5t4.5 -7.5q0 -2 -1 -4q-20 -62 -78.5 -101t-144.5 -39q-112 0 -179.5 68t-67.5 177zM148 276
h279q-18 122 -137 122q-58 0 -95 -31.5t-47 -90.5zM152 685h48q17 0 20 -18q9 -59 69 -59t69 59q3 18 20 18h48q19 0 19 -19q0 -54 -42 -90q-43 -37 -114 -37t-113.5 36.5t-42.5 90.5q0 19 19 19z" />
    <glyph glyph-name="Edotaccent" unicode="&#x116;" horiz-adv-x="629" 
d="M108 700h442q19 0 19 -19v-60q0 -19 -19 -19h-356v-204h282q19 0 19 -19v-58q0 -19 -19 -19h-282v-204h360q19 0 19 -19v-60q0 -19 -19 -19h-446q-19 0 -19 19v662q0 19 19 19zM258 851q0 30 19.5 49t49.5 19t49.5 -19t19.5 -49q0 -29 -20 -48q-20 -20 -49 -20t-49 19.5
t-20 48.5z" />
    <glyph glyph-name="edotaccent" unicode="&#x117;" horiz-adv-x="574" 
d="M114 412q67 68 176 68q106 0 172.5 -66.5t66.5 -176.5v-11q0 -23 -23 -23h-359q7 -65 45 -98t102 -33q46 0 78.5 15.5t45.5 41.5q8 15 22 15h58q10 0 14.5 -3.5t4.5 -7.5q0 -2 -1 -4q-20 -62 -78.5 -101t-144.5 -39q-112 0 -179.5 68t-67.5 177t68 178zM427 276
q-18 122 -137 122q-58 0 -95 -31.5t-47 -90.5h279zM240 669q19 19 49 19t49.5 -19t19.5 -49q0 -29 -20 -48q-20 -20 -49 -20t-49 19.5t-20 48.5q0 30 20 49z" />
    <glyph glyph-name="Eogonek" unicode="&#x118;" horiz-adv-x="629" 
d="M108 700h442q19 0 19 -19v-60q0 -19 -19 -19h-356v-204h282q19 0 19 -19v-58q0 -19 -19 -19h-282v-204h360q19 0 19 -19v-65q0 -15 -13 -22q-47 -31 -65.5 -52t-18.5 -41q0 -37 54 -37q14 0 23 1h5q15 0 15 -16v-40q0 -18 -18 -21q-20 -3 -38 -3q-56 0 -90 27t-34 70
q0 73 87 120h-372q-19 0 -19 19v662q0 19 19 19z" />
    <glyph glyph-name="eogonek" unicode="&#x119;" horiz-adv-x="574" 
d="M114 412q67 68 176 68q106 0 172.5 -66.5t66.5 -176.5v-11q0 -23 -23 -23h-359q7 -65 45 -98t102 -33q46 0 78.5 15.5t45.5 41.5q8 15 22 15h58q10 0 14.5 -3.5t4.5 -7.5q0 -2 -1 -4q-22 -69 -90 -108q-91 -58 -91 -97q0 -38 54 -38q14 0 22 2h5q16 0 16 -17v-39
q0 -18 -18 -21q-20 -3 -38 -3q-57 0 -91 27t-34 70q0 47 37 84q-109 1 -175.5 69.5t-66.5 175.5q0 109 68 178zM427 276q-18 122 -137 122q-58 0 -95 -31.5t-47 -90.5h279z" />
    <glyph glyph-name="Ecaron" unicode="&#x11a;" horiz-adv-x="629" 
d="M108 700h442q19 0 19 -19v-60q0 -19 -19 -19h-356v-204h282q19 0 19 -19v-58q0 -19 -19 -19h-282v-204h360q19 0 19 -19v-60q0 -19 -19 -19h-446q-19 0 -19 19v662q0 19 19 19zM161 917q3 7 15 7h57q16 0 24 -11l69 -80h2l69 80q8 11 24 11h57q12 0 14 -5t2 -7
q0 -5 -6 -12l-103 -118q-10 -10 -24 -10h-68q-14 0 -24 10l-103 118q-6 7 -6 13q0 2 1 4z" />
    <glyph glyph-name="ecaron" unicode="&#x11b;" horiz-adv-x="574" 
d="M46 234q0 109 67.5 177.5t176.5 68.5q106 0 172.5 -66.5t66.5 -176.5v-11q0 -23 -23 -23h-359q7 -65 45 -98t102 -33q46 0 78.5 15.5t45.5 41.5q8 15 22 15h58q10 0 14.5 -3.5t4.5 -7.5q0 -2 -1 -4q-20 -62 -78.5 -101t-144.5 -39q-112 0 -179.5 68t-67.5 177zM148 276
h279q-18 122 -137 122q-58 0 -95 -31.5t-47 -90.5zM123 686q3 7 15 7h57q16 0 24 -11l69 -80h2l69 80q8 11 24 11h57q12 0 14 -5t2 -7q0 -5 -6 -12l-103 -118q-10 -10 -24 -10h-68q-14 0 -24 10l-103 118q-6 7 -6 13q0 2 1 4z" />
    <glyph glyph-name="Gcircumflex" unicode="&#x11c;" horiz-adv-x="816" 
d="M56 350q0 154 102 257.5t258 103.5q117 0 205.5 -60.5t117.5 -158.5q1 -4 1 -7q0 -4 -3.5 -9t-13.5 -5h-75q-17 0 -21 16q-21 57 -78 90.5t-133 33.5q-113 0 -182 -73t-69 -188q0 -118 70.5 -189.5t183.5 -71.5q99 0 164 56.5t72 153.5h-207q-19 0 -19 19v50q0 19 19 19
h293q19 0 19 -19v-33q0 -155 -96 -250.5t-247 -95.5q-157 0 -259 103t-102 258zM256 795l103 118q11 11 24 11h68q13 0 24 -11l103 -118q6 -7 6 -12q0 -2 -2 -6.5t-14 -4.5h-57q-15 0 -24 10l-69 80h-2l-69 -80q-9 -10 -23 -10h-58q-12 0 -14 4.5t-2 6.5q0 5 6 12z" />
    <glyph glyph-name="gcircumflex" unicode="&#x11d;" horiz-adv-x="613" 
d="M46 238q0 101 67.5 171.5t164.5 70.5q53 0 96 -22t64 -60h3v52q0 19 19 19h60q19 0 19 -19v-441q0 -110 -66.5 -173t-183.5 -63q-95 0 -156 42t-75 115v5q0 15 19 15h62q15 0 21 -17q21 -75 130 -75q75 0 113.5 39t38.5 112v71h-4q-20 -38 -63.5 -60t-96.5 -22
q-98 0 -165 69.5t-67 170.5zM189 129q41 -44 106 -44t106 43.5t41 109.5q0 65 -41 108.5t-106 43.5t-106 -43.5t-41 -108.5q0 -66 41 -109zM140 564l103 118q11 11 24 11h68q13 0 24 -11l103 -118q6 -7 6 -12q0 -2 -2 -6.5t-14 -4.5h-57q-15 0 -24 10l-69 80h-2l-69 -80
q-9 -10 -23 -10h-58q-12 0 -14 4.5t-2 6.5q0 5 6 12z" />
    <glyph glyph-name="Gbreve" unicode="&#x11e;" horiz-adv-x="816" 
d="M158 608q102 103 258 103q117 0 205.5 -60.5t117.5 -158.5q1 -4 1 -7q0 -4 -3.5 -9t-13.5 -5h-75q-17 0 -21 16q-21 57 -78 90.5t-133 33.5q-113 0 -182 -73t-69 -188q0 -118 70.5 -189.5t183.5 -71.5q99 0 164 56.5t72 153.5h-207q-19 0 -19 19v50q0 19 19 19h293
q19 0 19 -19v-33q0 -155 -96 -250.5t-247 -95.5q-157 0 -259 103t-102 258q0 154 102 258zM261 897q0 19 19 19h48q17 0 20 -18q9 -59 69 -59t69 59q3 18 20 18h48q19 0 19 -19q0 -54 -42 -90q-43 -37 -114 -37t-113.5 36.5t-42.5 90.5z" />
    <glyph glyph-name="gbreve" unicode="&#x11f;" horiz-adv-x="613" 
d="M46 238q0 101 67.5 171.5t164.5 70.5q53 0 96 -22t64 -60h3v52q0 19 19 19h60q19 0 19 -19v-441q0 -110 -66.5 -173t-183.5 -63q-95 0 -156 42t-75 115v5q0 15 19 15h62q15 0 21 -17q21 -75 130 -75q75 0 113.5 39t38.5 112v71h-4q-20 -38 -63.5 -60t-96.5 -22
q-98 0 -165 69.5t-67 170.5zM148 238q0 -66 41 -109.5t106 -43.5t106 43.5t41 109.5q0 65 -41 108.5t-106 43.5t-106 -43.5t-41 -108.5zM146 666q0 19 19 19h48q17 0 20 -18q9 -59 69 -59t69 59q3 18 20 18h48q19 0 19 -19q0 -54 -42 -90q-43 -37 -114 -37t-113.5 36.5
t-42.5 90.5z" />
    <glyph glyph-name="Gdotaccent" unicode="&#x120;" horiz-adv-x="816" 
d="M56 350q0 154 102 257.5t258 103.5q117 0 205.5 -60.5t117.5 -158.5q1 -4 1 -7q0 -4 -3.5 -9t-13.5 -5h-75q-17 0 -21 16q-21 57 -78 90.5t-133 33.5q-113 0 -182 -73t-69 -188q0 -118 70.5 -189.5t183.5 -71.5q99 0 164 56.5t72 153.5h-207q-19 0 -19 19v50q0 19 19 19
h293q19 0 19 -19v-33q0 -155 -96 -250.5t-247 -95.5q-157 0 -259 103t-102 258zM348 851q0 30 19.5 49t49.5 19t49.5 -19t19.5 -49q0 -29 -20 -48q-20 -20 -49 -20t-49 19.5t-20 48.5z" />
    <glyph glyph-name="gdotaccent" unicode="&#x121;" horiz-adv-x="613" 
d="M46 238q0 101 67.5 171.5t164.5 70.5q53 0 96 -22t64 -60h3v52q0 19 19 19h60q19 0 19 -19v-441q0 -110 -66.5 -173t-183.5 -63q-95 0 -156 42t-75 115v5q0 15 19 15h62q15 0 21 -17q21 -75 130 -75q75 0 113.5 39t38.5 112v71h-4q-20 -38 -63.5 -60t-96.5 -22
q-98 0 -165 69.5t-67 170.5zM189 129q41 -44 106 -44t106 43.5t41 109.5q0 65 -41 108.5t-106 43.5t-106 -43.5t-41 -108.5q0 -66 41 -109zM253 669q19 19 49 19t49.5 -19t19.5 -49q0 -29 -20 -48q-20 -20 -49 -20t-49 19.5t-20 48.5q0 30 20 49z" />
    <glyph glyph-name="uni0122" unicode="&#x122;" horiz-adv-x="816" 
d="M158 608q102 103 258 103q117 0 205.5 -60.5t117.5 -158.5q1 -4 1 -7q0 -4 -3.5 -9t-13.5 -5h-75q-17 0 -21 16q-21 57 -78 90.5t-133 33.5q-113 0 -182 -73t-69 -188q0 -118 70.5 -189.5t183.5 -71.5q99 0 164 56.5t72 153.5h-207q-19 0 -19 19v50q0 19 19 19h293
q19 0 19 -19v-33q0 -155 -96 -250.5t-247 -95.5q-157 0 -259 103t-102 258q0 154 102 258zM344 -235l16 134q2 18 19 18h65q18 0 18 -14q0 -3 -1 -7l-35 -134q-5 -17 -21 -17h-44q-17 0 -17 15v5z" />
    <glyph glyph-name="uni0123" unicode="&#x123;" horiz-adv-x="613" 
d="M114 410q67 70 164 70q53 0 96 -22t64 -60h3v52q0 19 19 19h60q19 0 19 -19v-441q0 -110 -66.5 -173t-183.5 -63q-95 0 -156 42t-75 115v5q0 15 19 15h62q15 0 21 -17q21 -75 130 -75q75 0 113.5 39t38.5 112v71h-4q-20 -38 -63.5 -60t-96.5 -22q-98 0 -165 69.5
t-67 170.5t68 172zM148 238q0 -66 41 -109.5t106 -43.5t106 43.5t41 109.5q0 65 -41 108.5t-106 43.5t-106 -43.5t-41 -108.5zM255 585l35 134q4 16 21 16h43q17 0 17 -15v-5l-15 -133q-2 -18 -20 -18h-65q-17 0 -17 14q0 3 1 7z" />
    <glyph glyph-name="Hcircumflex" unicode="&#x124;" horiz-adv-x="744" 
d="M89 681q0 19 19 19h67q19 0 19 -19v-292h356v292q0 19 19 19h68q19 0 19 -19v-662q0 -19 -19 -19h-68q-19 0 -19 19v271h-356v-271q0 -19 -19 -19h-67q-19 0 -19 19v662zM211 795l103 118q11 11 24 11h68q13 0 24 -11l103 -118q6 -7 6 -12q0 -2 -2 -6.5t-14 -4.5h-57
q-15 0 -24 10l-69 80h-2l-69 -80q-9 -10 -23 -10h-58q-12 0 -14 4.5t-2 6.5q0 5 6 12z" />
    <glyph glyph-name="hcircumflex" unicode="&#x125;" horiz-adv-x="586" 
d="M93 700h62q19 0 19 -19v-284h3q19 40 61 61.5t97 21.5q87 0 136 -52t49 -145v-264q0 -19 -19 -19h-62q-19 0 -19 19v240q0 130 -114 130q-61 0 -96.5 -36t-35.5 -97v-237q0 -19 -19 -19h-62q-19 0 -19 19v662q0 19 19 19zM-38 795l103 118q11 11 24 11h68q13 0 24 -11
l103 -118q6 -7 6 -12q0 -2 -2 -6.5t-14 -4.5h-57q-15 0 -24 10l-69 80h-2l-69 -80q-9 -10 -23 -10h-58q-12 0 -14 4.5t-2 6.5q0 5 6 12z" />
    <glyph glyph-name="Hbar" unicode="&#x126;" horiz-adv-x="769" 
d="M27 523v40q0 19 19 19h55v99q0 19 19 19h68q19 0 19 -19v-99h356v99q0 19 19 19h67q19 0 19 -19v-99h55q19 0 19 -19v-40q0 -19 -19 -19h-55v-485q0 -19 -19 -19h-67q-19 0 -19 19v271h-356v-271q0 -19 -19 -19h-68q-19 0 -19 19v485h-55q-19 0 -19 19zM563 389v115h-356
v-115h356z" />
    <glyph glyph-name="hbar" unicode="&#x127;" horiz-adv-x="597" 
d="M345 466q87 0 136 -52t49 -145v-250q0 -19 -19 -19h-62q-19 0 -19 19v226q0 130 -114 130q-60 0 -96 -36t-36 -97v-223q0 -19 -19 -19h-63q-19 0 -19 19v514h-73q-19 0 -19 19v35q0 19 19 19h73v75q0 19 19 19h62q19 0 19 -19v-75h156q19 0 19 -19v-35q0 -19 -19 -19
h-156v-150h4q19 40 61 61.5t97 21.5z" />
    <glyph glyph-name="Itilde" unicode="&#x128;" horiz-adv-x="283" 
d="M89 19v662q0 19 19 19h67q19 0 19 -19v-662q0 -19 -19 -19h-67q-19 0 -19 19zM-29 797q4 58 29 89t67 31q7 0 13 -0.5t12 -2.5t10.5 -3t10.5 -4.5t9 -5t9.5 -6t8.5 -5.5t8.5 -6t7.5 -6q33 -25 48 -25q28 0 33 44q1 19 19 19h37q18 0 18 -19q0 -5 -1 -10
q-4 -54 -29.5 -82.5t-65.5 -28.5q-38 0 -89 40q-33 25 -48 25q-27 0 -33 -45q-2 -19 -19 -19h-37q-18 0 -18 17v3z" />
    <glyph glyph-name="itilde" unicode="&#x129;" horiz-adv-x="247" 
d="M74 450q0 19 19 19h62q19 0 19 -19v-431q0 -19 -19 -19h-62q-19 0 -19 19v431zM-24 565q0 58 21.5 89.5t59.5 31.5q26 0 49 -17t40.5 -34t30.5 -17q25 0 28 48q1 19 20 19h27q19 0 19 -19q0 -58 -21.5 -89.5t-58.5 -31.5q-26 0 -49.5 17t-41 34t-29.5 17q-25 0 -29 -48
q-2 -19 -20 -19h-27q-19 0 -19 19z" />
    <glyph glyph-name="Imacron" unicode="&#x12a;" horiz-adv-x="283" 
d="M89 681q0 19 19 19h67q19 0 19 -19v-662q0 -19 -19 -19h-67q-19 0 -19 19v662zM10 876h262q19 0 19 -19v-43q0 -19 -19 -19h-262q-19 0 -19 19v43q0 19 19 19z" />
    <glyph glyph-name="imacron" unicode="&#x12b;" horiz-adv-x="247" 
d="M74 450q0 19 19 19h62q19 0 19 -19v-431q0 -19 -19 -19h-62q-19 0 -19 19v431zM18 645h211q19 0 19 -19v-43q0 -19 -19 -19h-211q-19 0 -19 19v43q0 19 19 19z" />
    <glyph glyph-name="Ibreve" unicode="&#x12c;" horiz-adv-x="283" 
d="M89 681q0 19 19 19h67q19 0 19 -19v-662q0 -19 -19 -19h-67q-19 0 -19 19v662zM-15 897q0 19 19 19h48q17 0 20 -18q9 -59 69 -59t69 59q3 18 20 18h48q19 0 19 -19q0 -54 -42 -90q-43 -37 -114 -37t-113.5 36.5t-42.5 90.5z" />
    <glyph glyph-name="ibreve" unicode="&#x12d;" horiz-adv-x="247" 
d="M74 450q0 19 19 19h62q19 0 19 -19v-431q0 -19 -19 -19h-62q-19 0 -19 19v431zM8 685h42q18 0 19 -19q7 -59 55 -59t54 59q3 19 20 19h41q18 0 18 -17v-3q-4 -60 -38 -93t-95 -33t-95 33t-39 94v2q0 17 18 17z" />
    <glyph glyph-name="Iogonek" unicode="&#x12e;" horiz-adv-x="283" 
d="M14 -120q0 74 88 121q-13 3 -13 18v662q0 19 19 19h67q19 0 19 -19v-667q0 -15 -13 -22q-47 -31 -65.5 -52t-18.5 -41q0 -37 54 -37q14 0 23 1h5q15 0 15 -16v-40q0 -18 -18 -21q-19 -3 -38 -3q-56 0 -90 27t-34 70z" />
    <glyph glyph-name="iogonek" unicode="&#x12f;" horiz-adv-x="247" 
d="M-7 -120q0 75 90 122q-9 4 -9 17v431q0 19 19 19h62q19 0 19 -19v-431q0 -5 -1 -8q-2 -12 -13 -19q-47 -31 -65.5 -52t-18.5 -41q0 -37 54 -37q14 0 23 1h5q15 0 15 -16v-40q0 -18 -18 -21q-20 -3 -38 -3q-56 0 -90 27t-34 70zM75 669q19 19 49 19t49.5 -19t19.5 -49
q0 -29 -20 -48q-20 -20 -49 -20t-49 19.5t-20 48.5q0 30 20 49z" />
    <glyph glyph-name="Idotaccent" unicode="&#x130;" horiz-adv-x="283" 
d="M89 681q0 19 19 19h67q19 0 19 -19v-662q0 -19 -19 -19h-67q-19 0 -19 19v662zM72 851q0 30 19.5 49t49.5 19t49.5 -19t19.5 -49q0 -29 -20 -48q-20 -20 -49 -20t-49 19.5t-20 48.5z" />
    <glyph glyph-name="dotlessi" unicode="&#x131;" horiz-adv-x="247" 
d="M93 469h62q19 0 19 -19v-431q0 -19 -19 -19h-62q-19 0 -19 19v431q0 19 19 19z" />
    <glyph glyph-name="Jcircumflex" unicode="&#x134;" horiz-adv-x="634" 
d="M54 235v69q0 19 19 19h69q19 0 19 -19v-57q0 -158 142 -158q145 0 145 158v355h-275q-19 0 -19 19v60q0 19 19 19h362q19 0 19 -19v-442q0 -119 -65 -184.5t-185 -65.5q-118 0 -184 64t-66 182zM201 795l103 118q11 11 24 11h68q13 0 24 -11l103 -118q6 -7 6 -12
q0 -2 -2 -6.5t-14 -4.5h-57q-15 0 -24 10l-69 80h-2l-69 -80q-9 -10 -23 -10h-58q-12 0 -14 4.5t-2 6.5q0 5 6 12z" />
    <glyph glyph-name="jcircumflex" unicode="&#x135;" horiz-adv-x="247" 
d="M-38 -133q18 -2 26 -2q46 0 66 22t20 77v486q0 19 19 19h62q19 0 19 -19v-490q0 -97 -40.5 -142t-122.5 -45q-30 0 -53 6q-17 3 -17 20v52q0 16 16 16h5zM-11 563l78 118q9 12 23 12h68q14 0 22 -12l79 -118q4 -6 4 -10q0 -3 -2.5 -7.5t-13.5 -4.5h-47q-14 0 -23 12
l-52 80h-3l-52 -80q-8 -12 -23 -12h-46q-11 0 -13.5 4.5t-2.5 7.5q0 4 4 10z" />
    <glyph glyph-name="uni0136" unicode="&#x136;" horiz-adv-x="685" 
d="M89 19v662q0 19 19 19h67q19 0 19 -19v-327h69q18 0 27 -1l214 335q9 12 24 12h83q11 0 14 -4.5t3 -7.5q0 -5 -4 -11l-222 -344q196 -64 236 -312v-5q0 -16 -18 -16h-77q-17 0 -20 17q-23 127 -88.5 181.5t-180.5 54.5h-60v-234q0 -19 -19 -19h-67q-19 0 -19 19z
M292 -235l16 134q2 18 19 18h65q18 0 18 -14q0 -3 -1 -7l-35 -134q-5 -17 -21 -17h-44q-17 0 -17 15v5z" />
    <glyph glyph-name="uni0137" unicode="&#x137;" horiz-adv-x="557" 
d="M74 19v662q0 19 19 19h62q19 0 19 -19v-400h54q23 0 34 -1l133 178q8 11 22 11h78q12 0 14.5 -4.5t2.5 -6.5q0 -5 -5 -12l-144 -191q132 -59 160 -234v-5q0 -16 -18 -16h-66q-17 0 -20 18q-18 93 -65.5 132.5t-136.5 39.5h-43v-171q0 -19 -19 -19h-62q-19 0 -19 19z
M213 -235l16 134q1 18 19 18h65q18 0 18 -14q0 -3 -1 -7l-35 -134q-5 -17 -21 -17h-44q-17 0 -17 15v5z" />
    <glyph glyph-name="Lacute" unicode="&#x139;" horiz-adv-x="576" 
d="M108 700h67q19 0 19 -19v-582h330q19 0 19 -19v-61q0 -19 -19 -19h-416q-19 0 -19 19v662q0 19 19 19zM75 795l79 116q8 13 22 13h78q12 0 14 -4.5t2 -6.5q0 -5 -6 -12l-94 -118q-7 -11 -22 -11h-61q-11 0 -13.5 4.5t-2.5 7.5q0 5 4 11z" />
    <glyph glyph-name="lacute" unicode="&#x13a;" horiz-adv-x="248" 
d="M74 681q0 19 19 19h62q19 0 19 -19v-662q0 -19 -19 -19h-62q-19 0 -19 19v662zM57 795l79 116q8 13 22 13h78q12 0 14 -4.5t2 -6.5q0 -5 -6 -12l-94 -118q-7 -11 -22 -11h-61q-11 0 -13.5 4.5t-2.5 7.5q0 5 4 11z" />
    <glyph glyph-name="uni013B" unicode="&#x13b;" horiz-adv-x="576" 
d="M89 19v662q0 19 19 19h67q19 0 19 -19v-582h330q19 0 19 -19v-61q0 -19 -19 -19h-416q-19 0 -19 19zM248 -235l16 134q2 18 19 18h65q18 0 18 -14q0 -3 -1 -7l-35 -134q-5 -17 -21 -17h-44q-17 0 -17 15v5z" />
    <glyph glyph-name="uni013C" unicode="&#x13c;" horiz-adv-x="248" 
d="M74 19v662q0 19 19 19h62q19 0 19 -19v-662q0 -19 -19 -19h-62q-19 0 -19 19zM54 -235l16 134q2 18 19 18h65q18 0 18 -14q0 -3 -1 -7l-35 -134q-5 -17 -21 -17h-44q-17 0 -17 15v5z" />
    <glyph glyph-name="Lcaron" unicode="&#x13d;" horiz-adv-x="576" 
d="M108 700h67q19 0 19 -19v-582h330q19 0 19 -19v-61q0 -19 -19 -19h-416q-19 0 -19 19v662q0 19 19 19zM344 453l16 240q2 18 19 18h51q18 0 18 -17v-3l-18 -240q-2 -18 -20 -18h-47q-19 0 -19 18v2z" />
    <glyph glyph-name="lcaron" unicode="&#x13e;" horiz-adv-x="376" 
d="M74 19v662q0 19 19 19h62q19 0 19 -19v-662q0 -19 -19 -19h-62q-19 0 -19 19zM268 692q0 19 19 19h64q19 0 19 -17v-3l-14 -240q-2 -18 -19 -18h-50q-19 0 -19 19v240z" />
    <glyph glyph-name="Ldot" unicode="&#x13f;" horiz-adv-x="581" 
d="M89 681q0 19 19 19h67q19 0 19 -19v-582h330q19 0 19 -19v-61q0 -19 -19 -19h-416q-19 0 -19 19v662zM365 404q19 19 50 19t50.5 -19t19.5 -50q0 -32 -19 -51q-20 -19 -51 -19t-50.5 19t-19.5 51q0 31 20 50z" />
    <glyph glyph-name="ldot" unicode="&#x140;" horiz-adv-x="404" 
d="M93 700h62q19 0 19 -19v-662q0 -19 -19 -19h-62q-19 0 -19 19v662q0 19 19 19zM270 383q19 19 50 19t50.5 -19.5t19.5 -50.5q0 -32 -19 -51t-51 -19q-31 0 -50 19.5t-19 50.5t19 51z" />
    <glyph glyph-name="Lslash" unicode="&#x141;" horiz-adv-x="605" 
d="M10 212v55q0 14 13 23l90 48v343q0 19 19 19h68q19 0 19 -19v-286l224 121q6 3 11 3q4 0 8 -2.5t4 -13.5v-55q0 -16 -13 -23l-234 -126v-200h330q19 0 19 -19v-61q0 -19 -19 -19h-417q-19 0 -19 19v222l-80 -43q-6 -2 -10 -2t-8.5 2.5t-4.5 13.5z" />
    <glyph glyph-name="lslash" unicode="&#x142;" horiz-adv-x="352" 
d="M27 287l99 64v330q0 19 19 19h62q19 0 19 -19v-262l88 57q6 4 11 4q3 0 7.5 -2.5t4.5 -13.5v-55q0 -15 -12 -24l-99 -64v-302q0 -19 -19 -19h-62q-19 0 -19 19v234l-88 -57q-6 -4 -11 -4q-3 0 -7.5 2.5t-4.5 13.5v55q0 15 12 24z" />
    <glyph glyph-name="Nacute" unicode="&#x143;" horiz-adv-x="771" 
d="M89 681q0 19 19 19h67q15 0 23 -11l377 -514h2v506q0 19 19 19h67q19 0 19 -19v-662q0 -19 -19 -19h-68q-15 0 -23 11l-377 513h-1v-505q0 -19 -19 -19h-67q-19 0 -19 19v662zM319 795l79 116q8 13 22 13h78q12 0 14 -4.5t2 -6.5q0 -5 -6 -12l-94 -118q-7 -11 -22 -11
h-61q-11 0 -13.5 4.5t-2.5 7.5q0 5 4 11z" />
    <glyph glyph-name="nacute" unicode="&#x144;" horiz-adv-x="586" 
d="M93 469h60q19 0 19 -19v-53h3q41 83 159 83q87 0 136.5 -52t49.5 -145v-264q0 -19 -19 -19h-62q-19 0 -19 19v240q0 130 -114 130q-61 0 -96.5 -36t-35.5 -97v-237q0 -19 -19 -19h-62q-19 0 -19 19v431q0 19 19 19zM230 564l79 116q8 13 22 13h78q12 0 14 -4.5t2 -6.5
q0 -5 -6 -12l-94 -118q-7 -11 -22 -11h-61q-11 0 -13.5 4.5t-2.5 7.5q0 5 4 11z" />
    <glyph glyph-name="uni0145" unicode="&#x145;" horiz-adv-x="771" 
d="M108 700h67q15 0 23 -11l377 -514h2v506q0 19 19 19h67q19 0 19 -19v-662q0 -19 -19 -19h-68q-15 0 -23 11l-377 513h-1v-505q0 -19 -19 -19h-67q-19 0 -19 19v662q0 19 19 19zM315 -235l16 134q1 18 19 18h65q18 0 18 -14q0 -3 -1 -7l-35 -134q-5 -17 -21 -17h-44
q-17 0 -17 15v5z" />
    <glyph glyph-name="uni0146" unicode="&#x146;" horiz-adv-x="586" 
d="M74 450q0 19 19 19h60q19 0 19 -19v-53h3q41 83 159 83q87 0 136.5 -52t49.5 -145v-264q0 -19 -19 -19h-62q-19 0 -19 19v240q0 130 -114 130q-61 0 -96.5 -36t-35.5 -97v-237q0 -19 -19 -19h-62q-19 0 -19 19v431zM227 -235l16 134q1 18 19 18h65q18 0 18 -14
q0 -3 -1 -7l-35 -134q-5 -17 -21 -17h-44q-17 0 -17 15v5z" />
    <glyph glyph-name="Ncaron" unicode="&#x147;" horiz-adv-x="771" 
d="M89 19v662q0 19 19 19h67q15 0 23 -11l377 -514h2v506q0 19 19 19h67q19 0 19 -19v-662q0 -19 -19 -19h-68q-15 0 -23 11l-377 513h-1v-505q0 -19 -19 -19h-67q-19 0 -19 19zM219 917q3 7 15 7h57q16 0 24 -11l69 -80h2l69 80q8 11 24 11h57q12 0 14 -5t2 -7q0 -5 -6 -12
l-103 -118q-10 -10 -24 -10h-68q-14 0 -24 10l-103 118q-6 7 -6 13q0 2 1 4z" />
    <glyph glyph-name="ncaron" unicode="&#x148;" horiz-adv-x="586" 
d="M74 19v431q0 19 19 19h60q19 0 19 -19v-53h3q41 83 159 83q87 0 136.5 -52t49.5 -145v-264q0 -19 -19 -19h-62q-19 0 -19 19v240q0 130 -114 130q-61 0 -96.5 -36t-35.5 -97v-237q0 -19 -19 -19h-62q-19 0 -19 19zM130 686q3 7 15 7h57q16 0 24 -11l69 -80h2l69 80
q8 11 24 11h57q12 0 14 -5t2 -7q0 -5 -6 -12l-103 -118q-10 -10 -24 -10h-68q-14 0 -24 10l-103 118q-6 7 -6 13q0 2 1 4z" />
    <glyph glyph-name="Eng" unicode="&#x14a;" horiz-adv-x="771" 
d="M663 700q19 0 19 -19v-701q0 -96 -37.5 -139t-120.5 -43q-31 0 -52 4q-17 3 -17 21v55q0 20 21 17q8 -1 26 -1q45 0 61.5 19.5t16.5 70.5v17l-385 523h-1v-505q0 -19 -19 -19h-67q-19 0 -19 19v662q0 19 19 19h67q15 0 23 -11l377 -514h2v506q0 19 19 19h67z" />
    <glyph glyph-name="eng" unicode="&#x14b;" horiz-adv-x="586" 
d="M334 480q87 0 136.5 -52t49.5 -145v-291q0 -95 -37.5 -138.5t-120.5 -43.5q-32 0 -53 4q-16 3 -16 21v52q0 20 20 17q18 -2 26 -2q45 0 63 20t18 74v263q0 130 -114 130q-61 0 -96.5 -36t-35.5 -97v-237q0 -19 -19 -19h-62q-19 0 -19 19v431q0 19 19 19h60q19 0 19 -19
v-53h3q41 83 159 83z" />
    <glyph glyph-name="Omacron" unicode="&#x14c;" horiz-adv-x="830" 
d="M56 350q0 152 104 256.5t255 104.5t255 -104.5t104 -256.5t-104 -256q-104 -105 -255 -105t-255 104.5t-104 256.5zM165 350q0 -113 70 -187t180 -74t179.5 74t69.5 187t-69.5 187t-179.5 74t-180 -74t-70 -187zM265 857q0 19 19 19h262q19 0 19 -19v-43q0 -19 -19 -19
h-262q-19 0 -19 19v43z" />
    <glyph glyph-name="omacron" unicode="&#x14d;" horiz-adv-x="590" 
d="M118 410q71 70 177 70t177.5 -70.5t71.5 -174.5t-71 -175q-72 -71 -178 -71t-177.5 71t-71.5 175t72 175zM189 124q40 -44 106 -44t106.5 44t40.5 111t-40.5 111t-106.5 44t-106.5 -44t-40.5 -111t41 -111zM145 583v43q0 19 19 19h262q19 0 19 -19v-43q0 -19 -19 -19
h-262q-19 0 -19 19z" />
    <glyph glyph-name="Obreve" unicode="&#x14e;" horiz-adv-x="830" 
d="M56 350q0 152 104 256.5t255 104.5t255 -104.5t104 -256.5t-104 -256q-104 -105 -255 -105t-255 104.5t-104 256.5zM235 163q70 -74 180 -74t179.5 74t69.5 187t-69.5 187t-179.5 74t-180 -74t-70 -187t70 -187zM278 916h48q17 0 20 -18q9 -59 69 -59t69 59q3 18 20 18
h48q19 0 19 -19q0 -54 -42 -90q-43 -37 -114 -37t-113.5 36.5t-42.5 90.5q0 19 19 19z" />
    <glyph glyph-name="obreve" unicode="&#x14f;" horiz-adv-x="590" 
d="M46 235q0 104 71.5 174.5t177.5 70.5t177.5 -70.5t71.5 -174.5t-71 -175q-72 -71 -178 -71t-177.5 71t-71.5 175zM189 124q40 -44 106 -44t106.5 44t40.5 111t-40.5 111t-106.5 44t-106.5 -44t-40.5 -111t41 -111zM158 685h48q17 0 20 -18q9 -59 69 -59t69 59q3 18 20 18
h48q19 0 19 -19q0 -54 -42 -90q-43 -37 -114 -37t-113.5 36.5t-42.5 90.5q0 19 19 19z" />
    <glyph glyph-name="Ohungarumlaut" unicode="&#x150;" horiz-adv-x="830" 
d="M56 350q0 152 104 256.5t255 104.5t255 -104.5t104 -256.5t-104 -256q-104 -105 -255 -105t-255 104.5t-104 256.5zM235 163q70 -74 180 -74t179.5 74t69.5 187t-69.5 187t-179.5 74t-180 -74t-70 -187t70 -187zM259 795l83 117q8 12 23 12h57q12 0 14.5 -4t2.5 -7
q0 -5 -6 -12l-92 -118q-8 -11 -23 -11h-47q-11 0 -13.5 4t-2.5 7q0 5 4 12zM440 795l83 117q7 12 22 12h57q12 0 14.5 -4.5t2.5 -6.5q0 -5 -5 -12l-92 -118q-9 -11 -23 -11h-47q-12 0 -14.5 4t-2.5 7q0 5 5 12z" />
    <glyph glyph-name="ohungarumlaut" unicode="&#x151;" horiz-adv-x="590" 
d="M46 235q0 104 71.5 174.5t177.5 70.5t177.5 -70.5t71.5 -174.5t-71 -175q-72 -71 -178 -71t-177.5 71t-71.5 175zM189 124q40 -44 106 -44t106.5 44t40.5 111t-40.5 111t-106.5 44t-106.5 -44t-40.5 -111t41 -111zM139 564l83 117q8 12 23 12h57q12 0 14.5 -4t2.5 -7
q0 -5 -6 -12l-92 -118q-8 -11 -23 -11h-47q-11 0 -13.5 4.5t-2.5 7.5q0 5 4 11zM320 564l83 117q7 12 22 12h57q12 0 14.5 -4.5t2.5 -6.5q0 -5 -5 -12l-92 -118q-9 -11 -23 -11h-47q-12 0 -14.5 4.5t-2.5 6.5q0 5 5 12z" />
    <glyph glyph-name="OE" unicode="&#x152;" horiz-adv-x="1074" 
d="M999 98q19 0 19 -19v-60q0 -19 -19 -19h-581q-161 0 -261.5 98t-100.5 252t100.5 252t261.5 98h577q19 0 19 -19v-60q0 -19 -19 -19h-356v-204h282q19 0 19 -19v-58q0 -19 -19 -19h-282v-204h360zM165 350q0 -115 68 -183t187 -68h113v502h-113q-119 0 -187 -68t-68 -183
z" />
    <glyph glyph-name="oe" unicode="&#x153;" horiz-adv-x="970" 
d="M46 235q0 104 71.5 174.5t177.5 70.5q126 0 193 -96h2q66 96 196 96q106 0 172.5 -66.5t66.5 -176.5v-10q0 -24 -23 -24h-359q7 -64 45 -97t102 -33q93 0 124 56q7 15 22 15h58q17 0 17 -13q0 -4 -1 -8q-21 -59 -79.5 -96.5t-141.5 -37.5q-133 0 -199 96h-2
q-70 -96 -193 -96q-106 0 -177.5 71t-71.5 175zM148 235q0 -67 41 -111q40 -44 106 -44t106.5 44t40.5 111t-40.5 111t-106.5 44t-106.5 -44t-40.5 -111zM824 275q-18 123 -138 123q-59 0 -95.5 -31.5t-46.5 -91.5h280z" />
    <glyph glyph-name="Racute" unicode="&#x154;" horiz-adv-x="690" 
d="M89 19v662q0 19 19 19h257q120 0 188 -61t68 -166q0 -75 -36.5 -129.5t-103.5 -79.5q110 -60 142 -243v-5q0 -16 -18 -16h-76q-17 0 -20 17q-23 120 -81 173.5t-160 53.5h-74v-225q0 -19 -19 -19h-67q-19 0 -19 19zM194 343h163q154 0 154 130q0 129 -154 129h-163v-259z
M275 795l79 116q8 13 22 13h78q12 0 14 -4.5t2 -6.5q0 -5 -6 -12l-94 -118q-7 -11 -22 -11h-61q-11 0 -13.5 4.5t-2.5 7.5q0 5 4 11z" />
    <glyph glyph-name="racute" unicode="&#x155;" horiz-adv-x="390" 
d="M74 19v431q0 19 19 19h60q19 0 19 -19v-71h2q19 48 58.5 73.5t90.5 25.5q9 0 27 -2q16 -4 16 -22v-55q0 -17 -16 -17h-4q-8 1 -26 1q-146 0 -146 -182v-182q0 -19 -19 -19h-62q-19 0 -19 19zM138 564l79 116q8 13 22 13h78q12 0 14 -4.5t2 -6.5q0 -5 -6 -12l-94 -118
q-7 -11 -22 -11h-61q-11 0 -13.5 4.5t-2.5 7.5q0 5 4 11z" />
    <glyph glyph-name="uni0156" unicode="&#x156;" horiz-adv-x="690" 
d="M108 700h257q120 0 188 -61t68 -166q0 -75 -36.5 -129.5t-103.5 -79.5q110 -60 142 -243v-5q0 -16 -18 -16h-76q-17 0 -20 17q-23 120 -81 173.5t-160 53.5h-74v-225q0 -19 -19 -19h-67q-19 0 -19 19v662q0 19 19 19zM194 343h163q154 0 154 130q0 129 -154 129h-163
v-259zM275 -235l16 134q1 18 19 18h65q18 0 18 -14q0 -3 -1 -7l-35 -134q-5 -17 -21 -17h-44q-17 0 -17 15v5z" />
    <glyph glyph-name="uni0157" unicode="&#x157;" horiz-adv-x="390" 
d="M74 19v431q0 19 19 19h60q19 0 19 -19v-71h2q19 48 58.5 73.5t90.5 25.5q9 0 27 -2q16 -4 16 -22v-55q0 -17 -16 -17h-4q-8 1 -26 1q-146 0 -146 -182v-182q0 -19 -19 -19h-62q-19 0 -19 19zM54 -235l16 134q2 18 19 18h65q18 0 18 -14q0 -3 -1 -7l-35 -134
q-5 -17 -21 -17h-44q-17 0 -17 15v5z" />
    <glyph glyph-name="Rcaron" unicode="&#x158;" horiz-adv-x="690" 
d="M108 700h257q120 0 188 -61t68 -166q0 -75 -36.5 -129.5t-103.5 -79.5q110 -60 142 -243v-5q0 -16 -18 -16h-76q-17 0 -20 17q-23 120 -81 173.5t-160 53.5h-74v-225q0 -19 -19 -19h-67q-19 0 -19 19v662q0 19 19 19zM194 343h163q154 0 154 130q0 129 -154 129h-163
v-259zM175 917q3 7 15 7h57q16 0 24 -11l69 -80h2l69 80q8 11 24 11h57q12 0 14 -5t2 -7q0 -5 -6 -12l-103 -118q-10 -10 -24 -10h-68q-14 0 -24 10l-103 118q-6 7 -6 13q0 2 1 4z" />
    <glyph glyph-name="rcaron" unicode="&#x159;" horiz-adv-x="390" 
d="M74 19v431q0 19 19 19h60q19 0 19 -19v-71h2q19 48 58.5 73.5t90.5 25.5q9 0 27 -2q16 -4 16 -22v-55q0 -17 -16 -17h-4q-8 1 -26 1q-146 0 -146 -182v-182q0 -19 -19 -19h-62q-19 0 -19 19zM38 686q3 7 15 7h57q16 0 24 -11l69 -80h2l69 80q8 11 24 11h57q12 0 14 -5
t2 -7q0 -5 -6 -12l-103 -118q-10 -10 -24 -10h-68q-14 0 -24 10l-103 118q-6 7 -6 13q0 2 1 4z" />
    <glyph glyph-name="Sacute" unicode="&#x15a;" horiz-adv-x="626" 
d="M54 197q5 5 14 5h71q15 0 20 -17q22 -100 159 -100q73 0 113.5 29.5t40.5 79.5q0 83 -114 103l-105 19q-198 37 -198 194q0 92 66 146.5t188 54.5q236 0 260 -200v-3q0 -17 -18 -17h-69q-17 0 -20 18q-7 56 -45 81t-109 25q-145 0 -145 -102q0 -43 29 -67.5t103 -38.5
l105 -19q180 -32 180 -189q0 -98 -69.5 -154t-191.5 -56q-115 0 -184.5 50.5t-83.5 142.5q-1 3 -1 5q0 6 4 10zM247 795l79 116q8 13 22 13h78q12 0 14 -4.5t2 -6.5q0 -5 -6 -12l-94 -118q-7 -11 -22 -11h-61q-11 0 -13.5 4.5t-2.5 7.5q0 5 4 11z" />
    <glyph glyph-name="sacute" unicode="&#x15b;" horiz-adv-x="498" 
d="M49 130q5 5 14 5h63q15 0 21 -16q18 -52 106 -52q102 0 102 65q0 26 -18.5 39.5t-65.5 20.5l-83 12q-143 20 -143 133q0 65 51.5 104t148.5 39q181 0 202 -135v-5q0 -15 -18 -15h-61q-16 0 -21 18q-13 58 -103 58q-101 0 -101 -63q0 -22 18.5 -35t66.5 -20l82 -12
q143 -21 143 -136q0 -69 -53 -107.5t-149 -38.5q-180 0 -206 126v4q0 6 4 11zM180 564l79 116q8 13 22 13h78q12 0 14 -4.5t2 -6.5q0 -5 -6 -12l-94 -118q-7 -11 -22 -11h-61q-11 0 -13.5 4.5t-2.5 7.5q0 5 4 11z" />
    <glyph glyph-name="Scircumflex" unicode="&#x15c;" horiz-adv-x="626" 
d="M54 197q5 5 14 5h71q15 0 20 -17q22 -100 159 -100q73 0 113.5 29.5t40.5 79.5q0 83 -114 103l-105 19q-198 37 -198 194q0 92 66 146.5t188 54.5q236 0 260 -200v-3q0 -17 -18 -17h-69q-17 0 -20 18q-7 56 -45 81t-109 25q-145 0 -145 -102q0 -43 29 -67.5t103 -38.5
l105 -19q180 -32 180 -189q0 -98 -69.5 -154t-191.5 -56q-115 0 -184.5 50.5t-83.5 142.5q-1 3 -1 5q0 6 4 10zM152 795l103 118q11 11 24 11h68q13 0 24 -11l103 -118q6 -7 6 -12q0 -2 -2 -6.5t-14 -4.5h-57q-15 0 -24 10l-69 80h-2l-69 -80q-9 -10 -23 -10h-58
q-12 0 -14 4.5t-2 6.5q0 5 6 12z" />
    <glyph glyph-name="scircumflex" unicode="&#x15d;" horiz-adv-x="498" 
d="M49 130q5 5 14 5h63q15 0 21 -16q18 -52 106 -52q102 0 102 65q0 26 -18.5 39.5t-65.5 20.5l-83 12q-143 20 -143 133q0 65 51.5 104t148.5 39q181 0 202 -135v-5q0 -15 -18 -15h-61q-16 0 -21 18q-13 58 -103 58q-101 0 -101 -63q0 -22 18.5 -35t66.5 -20l82 -12
q143 -21 143 -136q0 -69 -53 -107.5t-149 -38.5q-180 0 -206 126v4q0 6 4 11zM86 564l103 118q11 11 24 11h68q13 0 24 -11l103 -118q6 -7 6 -12q0 -2 -2 -6.5t-14 -4.5h-57q-15 0 -24 10l-69 80h-2l-69 -80q-9 -10 -23 -10h-58q-12 0 -14 4.5t-2 6.5q0 5 6 12z" />
    <glyph glyph-name="Scedilla" unicode="&#x15e;" horiz-adv-x="626" 
d="M54 197q5 5 14 5h71q15 0 20 -17q22 -100 159 -100q73 0 113.5 29.5t40.5 79.5q0 83 -114 103l-105 19q-198 37 -198 194q0 92 66 146.5t188 54.5q236 0 260 -200v-3q0 -17 -18 -17h-69q-17 0 -20 18q-7 56 -45 81t-109 25q-145 0 -145 -102q0 -43 29 -67.5t103 -38.5
l105 -19q180 -32 180 -189q0 -87 -55 -141t-153 -66l-47 -155q-4 -16 -21 -16h-62q-17 0 -17 12q0 4 2 9l52 149q-98 8 -157 58t-71 133q-1 3 -1 5q0 6 4 10z" />
    <glyph glyph-name="scedilla" unicode="&#x15f;" horiz-adv-x="498" 
d="M49 130q5 5 14 5h63q15 0 21 -16q18 -52 106 -52q102 0 102 65q0 26 -18.5 39.5t-65.5 20.5l-83 12q-143 20 -143 133q0 65 51.5 104t148.5 39q181 0 202 -135v-5q0 -15 -18 -15h-61q-16 0 -21 18q-13 58 -103 58q-101 0 -101 -63q0 -22 18.5 -35t66.5 -20l82 -12
q143 -21 143 -136q0 -59 -40 -96.5t-115 -46.5l-47 -155q-4 -16 -21 -16h-62q-17 0 -17 12q0 4 2 9l52 149q-138 16 -160 124v4q0 6 4 11z" />
    <glyph glyph-name="Scaron" unicode="&#x160;" horiz-adv-x="626" 
d="M54 197q5 5 14 5h71q15 0 20 -17q22 -100 159 -100q73 0 113.5 29.5t40.5 79.5q0 83 -114 103l-105 19q-198 37 -198 194q0 92 66 146.5t188 54.5q236 0 260 -200v-3q0 -17 -18 -17h-69q-17 0 -20 18q-7 56 -45 81t-109 25q-145 0 -145 -102q0 -43 29 -67.5t103 -38.5
l105 -19q180 -32 180 -189q0 -98 -69.5 -154t-191.5 -56q-115 0 -184.5 50.5t-83.5 142.5q-1 3 -1 5q0 6 4 10zM147 917q3 7 15 7h57q16 0 24 -11l69 -80h2l69 80q8 11 24 11h57q12 0 14 -5t2 -7q0 -5 -6 -12l-103 -118q-10 -10 -24 -10h-68q-14 0 -24 10l-103 118
q-6 7 -6 13q0 2 1 4z" />
    <glyph glyph-name="scaron" unicode="&#x161;" horiz-adv-x="498" 
d="M49 130q5 5 14 5h63q15 0 21 -16q18 -52 106 -52q102 0 102 65q0 26 -18.5 39.5t-65.5 20.5l-83 12q-143 20 -143 133q0 65 51.5 104t148.5 39q181 0 202 -135v-5q0 -15 -18 -15h-61q-16 0 -21 18q-13 58 -103 58q-101 0 -101 -63q0 -22 18.5 -35t66.5 -20l82 -12
q143 -21 143 -136q0 -69 -53 -107.5t-149 -38.5q-180 0 -206 126v4q0 6 4 11zM81 686q3 7 15 7h57q16 0 24 -11l69 -80h2l69 80q8 11 24 11h57q12 0 14 -5t2 -7q0 -5 -6 -12l-103 -118q-10 -10 -24 -10h-68q-14 0 -24 10l-103 118q-6 7 -6 13q0 2 1 4z" />
    <glyph glyph-name="uni0162" unicode="&#x162;" horiz-adv-x="595" 
d="M46 700h503q19 0 19 -19v-61q0 -19 -19 -19h-199v-582q0 -19 -19 -19h-67q-19 0 -19 19v582h-199q-19 0 -19 19v61q0 19 19 19zM223 -235l16 134q1 18 19 18h65q18 0 18 -14q0 -3 -1 -7l-35 -134q-5 -17 -21 -17h-44q-17 0 -17 15v5z" />
    <glyph glyph-name="uni0163" unicode="&#x163;" horiz-adv-x="437" 
d="M35 469h87v112q0 19 19 19h62q19 0 19 -19v-112h159q19 0 19 -19v-47q0 -19 -19 -19h-159v-209q0 -52 22 -73.5t71 -21.5q38 0 68 11q7 3 11 3q11 0 11 -16v-50q0 -15 -14 -22q-41 -17 -95 -17q-174 0 -174 178v217h-87q-19 0 -19 19v47q0 19 19 19zM193 -235l16 134
q1 18 19 18h65q18 0 18 -14q0 -3 -1 -7l-35 -134q-5 -17 -21 -17h-44q-17 0 -17 15v5z" />
    <glyph glyph-name="Tcaron" unicode="&#x164;" horiz-adv-x="595" 
d="M27 620v61q0 19 19 19h503q19 0 19 -19v-61q0 -19 -19 -19h-199v-582q0 -19 -19 -19h-67q-19 0 -19 19v582h-199q-19 0 -19 19zM131 917q3 7 15 7h57q16 0 24 -11l69 -80h2l69 80q8 11 24 11h57q12 0 14 -5t2 -7q0 -5 -6 -12l-103 -118q-10 -10 -24 -10h-68q-14 0 -24 10
l-103 118q-6 7 -6 13q0 2 1 4z" />
    <glyph glyph-name="tcaron" unicode="&#x165;" horiz-adv-x="437" 
d="M35 469h87v112q0 19 19 19h62q19 0 19 -19v-112h159q19 0 19 -19v-47q0 -19 -19 -19h-159v-209q0 -52 22 -73.5t71 -21.5q38 0 68 11q7 3 11 3q11 0 11 -16v-50q0 -15 -14 -22q-41 -17 -95 -17q-174 0 -174 178v217h-87q-19 0 -19 19v47q0 19 19 19zM306 750h51
q19 0 19 -17v-3l-11 -174q-2 -18 -20 -18h-39q-19 0 -19 19v174q0 19 19 19z" />
    <glyph glyph-name="Tbar" unicode="&#x166;" horiz-adv-x="595" 
d="M27 681q0 19 19 19h503q19 0 19 -19v-61q0 -19 -19 -19h-199v-222h112q19 0 19 -19v-46q0 -19 -19 -19h-112v-276q0 -19 -19 -19h-67q-19 0 -19 19v276h-112q-19 0 -19 19v46q0 19 19 19h112v222h-199q-19 0 -19 19v61z" />
    <glyph glyph-name="tbar" unicode="&#x167;" horiz-adv-x="451" 
d="M391 91q22 9 22 -13v-50q0 -15 -14 -22q-41 -17 -95 -17q-174 0 -174 178v47h-85q-19 0 -19 19v29q0 19 19 19h85v106h-85q-19 0 -19 19v44q0 19 19 19h85v112q0 19 19 19h62q19 0 19 -19v-112h156q19 0 19 -19v-44q0 -19 -19 -19h-156v-106h132q19 0 19 -19v-29
q0 -19 -19 -19h-132v-39q0 -52 22 -73.5t71 -21.5q38 0 68 11z" />
    <glyph glyph-name="Utilde" unicode="&#x168;" horiz-adv-x="725" 
d="M80 681q0 19 19 19h68q19 0 19 -19v-388q0 -202 177 -202q176 0 176 202v388q0 19 19 19h68q19 0 19 -19v-399q0 -139 -75 -216q-76 -77 -207 -77t-207 77t-76 216v399zM193 797q4 58 29 89t67 31q7 0 13 -0.5t12 -2.5t10.5 -3t10.5 -4.5t9 -5t9.5 -6t8.5 -5.5t8.5 -6
t7.5 -6q33 -25 48 -25q28 0 33 44q1 19 19 19h37q18 0 18 -19q0 -5 -1 -10q-4 -54 -29.5 -82.5t-65.5 -28.5q-38 0 -89 40q-33 25 -48 25q-27 0 -33 -45q-2 -19 -19 -19h-37q-18 0 -18 17v3z" />
    <glyph glyph-name="utilde" unicode="&#x169;" horiz-adv-x="583" 
d="M86 469h62q19 0 19 -19v-240q0 -130 110 -130q60 0 96 36t36 97v237q0 19 19 19h62q19 0 19 -19v-431q0 -19 -19 -19h-60q-19 0 -19 19v54h-3q-19 -40 -61 -62t-98 -22q-86 0 -134 52t-48 145v264q0 19 19 19zM118 566q4 58 29 89t67 31q7 0 13 -0.5t12 -2.5t10.5 -3
t10.5 -4.5t9 -5t9.5 -6t8.5 -5.5t8.5 -6t7.5 -6q33 -25 48 -25q27 0 33 44q1 19 19 19h37q18 0 18 -19q0 -5 -1 -10q-4 -54 -29.5 -82.5t-65.5 -28.5q-38 0 -89 40q-33 25 -48 25q-27 0 -33 -45q-2 -19 -19 -19h-37q-18 0 -18 17v3z" />
    <glyph glyph-name="Umacron" unicode="&#x16a;" horiz-adv-x="725" 
d="M80 282v399q0 19 19 19h68q19 0 19 -19v-388q0 -202 177 -202q176 0 176 202v388q0 19 19 19h68q19 0 19 -19v-399q0 -139 -75 -216q-76 -77 -207 -77t-207 77t-76 216zM213 857q0 19 19 19h262q19 0 19 -19v-43q0 -19 -19 -19h-262q-19 0 -19 19v43z" />
    <glyph glyph-name="umacron" unicode="&#x16b;" horiz-adv-x="583" 
d="M67 186v264q0 19 19 19h62q19 0 19 -19v-240q0 -130 110 -130q60 0 96 36t36 97v237q0 19 19 19h62q19 0 19 -19v-431q0 -19 -19 -19h-60q-19 0 -19 19v54h-3q-19 -40 -61 -62t-98 -22q-86 0 -134 52t-48 145zM138 626q0 19 19 19h262q19 0 19 -19v-43q0 -19 -19 -19
h-262q-19 0 -19 19v43z" />
    <glyph glyph-name="Ubreve" unicode="&#x16c;" horiz-adv-x="725" 
d="M99 700h68q19 0 19 -19v-388q0 -202 177 -202q176 0 176 202v388q0 19 19 19h68q19 0 19 -19v-399q0 -139 -75 -216q-76 -77 -207 -77t-207 77t-76 216v399q0 19 19 19zM226 916h48q17 0 20 -18q9 -59 69 -59t69 59q3 18 20 18h48q19 0 19 -19q0 -54 -42 -90
q-43 -37 -114 -37t-113.5 36.5t-42.5 90.5q0 19 19 19z" />
    <glyph glyph-name="ubreve" unicode="&#x16d;" horiz-adv-x="583" 
d="M67 186v264q0 19 19 19h62q19 0 19 -19v-240q0 -130 110 -130q60 0 96 36t36 97v237q0 19 19 19h62q19 0 19 -19v-431q0 -19 -19 -19h-60q-19 0 -19 19v54h-3q-19 -40 -61 -62t-98 -22q-86 0 -134 52t-48 145zM132 666q0 19 19 19h48q17 0 20 -18q9 -59 69 -59t69 59
q3 18 20 18h48q19 0 19 -19q0 -54 -42 -90q-43 -37 -114 -37t-113.5 36.5t-42.5 90.5z" />
    <glyph glyph-name="Uring" unicode="&#x16e;" horiz-adv-x="725" 
d="M80 282v399q0 19 19 19h68q19 0 19 -19v-388q0 -202 177 -202q176 0 176 202v388q0 19 19 19h68q19 0 19 -19v-399q0 -139 -75 -216q-76 -77 -207 -77t-207 77t-76 216zM239 882q0 49 36 83t88 34t88 -34t36 -83t-36 -82q-36 -34 -88 -34t-88 33.5t-36 82.5zM323 843
q15 -16 40 -16t40 15.5t15 39.5t-15 39.5t-40 15.5t-40 -15.5t-15 -39.5t15 -39z" />
    <glyph glyph-name="uring" unicode="&#x16f;" horiz-adv-x="583" 
d="M67 186v264q0 19 19 19h62q19 0 19 -19v-240q0 -130 110 -130q60 0 96 36t36 97v237q0 19 19 19h62q19 0 19 -19v-431q0 -19 -19 -19h-60q-19 0 -19 19v54h-3q-19 -40 -61 -62t-98 -22q-86 0 -134 52t-48 145zM164 651q0 49 36 83t88 34t88 -34t36 -83t-36 -82
q-36 -34 -88 -34t-88 33.5t-36 82.5zM248 612q15 -16 40 -16t40 15.5t15 39.5t-15 40q-15 15 -40 15t-40 -15.5t-15 -39.5t15 -39z" />
    <glyph glyph-name="Uhungarumlaut" unicode="&#x170;" horiz-adv-x="725" 
d="M99 700h68q19 0 19 -19v-388q0 -202 177 -202q176 0 176 202v388q0 19 19 19h68q19 0 19 -19v-399q0 -139 -75 -216q-76 -77 -207 -77t-207 77t-76 216v399q0 19 19 19zM206 795l83 117q8 12 23 12h57q12 0 14.5 -4t2.5 -7q0 -5 -6 -12l-92 -118q-8 -11 -23 -11h-47
q-11 0 -13.5 4t-2.5 7q0 5 4 12zM387 795l83 117q7 12 22 12h57q12 0 14.5 -4.5t2.5 -6.5q0 -5 -5 -12l-92 -118q-9 -11 -23 -11h-47q-12 0 -14.5 4t-2.5 7q0 5 5 12z" />
    <glyph glyph-name="uhungarumlaut" unicode="&#x171;" horiz-adv-x="583" 
d="M86 469h62q19 0 19 -19v-240q0 -130 110 -130q60 0 96 36t36 97v237q0 19 19 19h62q19 0 19 -19v-431q0 -19 -19 -19h-60q-19 0 -19 19v54h-3q-19 -40 -61 -62t-98 -22q-86 0 -134 52t-48 145v264q0 19 19 19zM131 564l83 117q8 12 23 12h57q12 0 14.5 -4t2.5 -7
q0 -5 -6 -12l-92 -118q-8 -11 -23 -11h-47q-11 0 -13.5 4.5t-2.5 7.5q0 5 4 11zM312 564l83 117q7 12 22 12h57q12 0 14.5 -4.5t2.5 -6.5q0 -5 -5 -12l-92 -118q-9 -11 -23 -11h-47q-12 0 -14.5 4.5t-2.5 6.5q0 5 5 12z" />
    <glyph glyph-name="Uogonek" unicode="&#x172;" horiz-adv-x="725" 
d="M80 282v399q0 19 19 19h68q19 0 19 -19v-388q0 -202 177 -202q176 0 176 202v388q0 19 19 19h68q19 0 19 -19v-399q0 -103 -42 -172.5t-119 -99.5q-53 -34 -73.5 -56.5t-20.5 -43.5q0 -37 54 -37q14 0 23 1q4 1 7 1q13 0 13 -17v-39q0 -18 -18 -21q-17 -4 -38 -4
q-56 0 -90 27.5t-34 70.5q0 55 52 97q-130 2 -204.5 78.5t-74.5 214.5z" />
    <glyph glyph-name="uogonek" unicode="&#x173;" horiz-adv-x="583" 
d="M67 450q0 19 19 19h62q19 0 19 -19v-240q0 -130 110 -130q60 0 96 36t36 97v237q0 19 19 19h62q19 0 19 -19v-436q0 -15 -13 -22q-47 -31 -65.5 -52t-18.5 -41q0 -37 54 -37q14 0 23 1h5q15 0 15 -16v-40q0 -18 -18 -21q-19 -3 -38 -3q-56 0 -90 27t-34 70q0 75 91 122
q-9 4 -9 17v54h-3q-19 -40 -61 -62t-98 -22q-86 0 -134 52t-48 145v264z" />
    <glyph glyph-name="Wcircumflex" unicode="&#x174;" horiz-adv-x="1051" 
d="M44 700h72q16 0 21 -15l166 -526h3l166 526q4 15 21 15h65q16 0 21 -15l166 -526h3l166 526q4 15 21 15h71q17 0 17 -14q0 -3 -1 -8l-217 -663q-5 -15 -21 -15h-69q-16 0 -21 15l-167 518h-3l-167 -518q-5 -15 -21 -15h-70q-15 0 -21 15l-216 663q-2 6 -2 10q0 12 17 12z
M364 795l103 118q11 11 24 11h68q13 0 24 -11l103 -118q6 -7 6 -12q0 -2 -2 -6.5t-14 -4.5h-57q-15 0 -24 10l-69 80h-2l-69 -80q-9 -10 -23 -10h-58q-12 0 -14 4.5t-2 6.5q0 5 6 12z" />
    <glyph glyph-name="wcircumflex" unicode="&#x175;" horiz-adv-x="833" 
d="M48 469h64q16 0 22 -15l113 -328h3l116 328q6 15 22 15h57q16 0 22 -15l117 -328h2l113 328q6 15 22 15h64q17 0 17 -12q0 -4 -2 -10l-158 -432q-6 -15 -22 -15h-65q-17 0 -21 15l-116 321h-3l-115 -321q-6 -15 -22 -15h-65q-16 0 -22 15l-158 432q-2 6 -2 10q0 12 17 12
zM255 564l103 118q11 11 24 11h68q13 0 24 -11l103 -118q6 -7 6 -12q0 -2 -2 -6.5t-14 -4.5h-57q-15 0 -24 10l-69 80h-2l-69 -80q-9 -10 -23 -10h-58q-12 0 -14 4.5t-2 6.5q0 5 6 12z" />
    <glyph glyph-name="Ycircumflex" unicode="&#x176;" horiz-adv-x="663" 
d="M22 694q4 6 15 6h77q14 0 23 -13l194 -308h1l194 308q7 13 22 13h77q11 0 14 -4.5t3 -7.5q0 -5 -4 -11l-253 -396v-262q0 -19 -19 -19h-69q-19 0 -19 19v262l-253 396q-4 6 -4 12q0 2 1 5zM171 795l103 118q11 11 24 11h68q13 0 24 -11l103 -118q6 -7 6 -12q0 -2 -2 -6.5
t-14 -4.5h-57q-15 0 -24 10l-69 80h-2l-69 -80q-9 -10 -23 -10h-58q-12 0 -14 4.5t-2 6.5q0 5 6 12z" />
    <glyph glyph-name="ycircumflex" unicode="&#x177;" horiz-adv-x="586" 
d="M84 -62h61q15 0 21 -17q21 -63 117 -63q133 0 133 136v89h-4q-19 -38 -60.5 -60.5t-98.5 -22.5q-87 0 -135.5 52t-48.5 143v255q0 19 19 19h62q19 0 19 -19v-230q0 -130 112 -130q59 0 95.5 36t36.5 97v227q0 19 19 19h62q19 0 19 -19v-456q0 -105 -61 -163t-169 -58
q-92 0 -148.5 39.5t-68.5 106.5q-1 3 -1 6q0 13 19 13zM129 564l103 118q11 11 24 11h68q13 0 24 -11l103 -118q6 -7 6 -12q0 -2 -2 -6.5t-14 -4.5h-57q-15 0 -24 10l-69 80h-2l-69 -80q-9 -10 -23 -10h-58q-12 0 -14 4.5t-2 6.5q0 5 6 12z" />
    <glyph glyph-name="Ydieresis" unicode="&#x178;" horiz-adv-x="663" 
d="M22 694q4 6 15 6h77q14 0 23 -13l194 -308h1l194 308q7 13 22 13h77q11 0 14 -4.5t3 -7.5q0 -5 -4 -11l-253 -396v-262q0 -19 -19 -19h-69q-19 0 -19 19v262l-253 396q-4 6 -4 12q0 2 1 5zM178 898q18 18 47 18q28 0 46.5 -18.5t18.5 -47.5t-18.5 -48t-46.5 -19
q-29 0 -47.5 19t-18.5 48t19 48zM393 898q18 18 46 18q29 0 47.5 -18.5t18.5 -47.5t-18.5 -48t-47.5 -19q-28 0 -46.5 19t-18.5 48t19 48z" />
    <glyph glyph-name="Zacute" unicode="&#x179;" horiz-adv-x="625" 
d="M51 19v47q0 13 8 24l372 512h-354q-19 0 -19 19v60q0 19 19 19h471q19 0 19 -19v-47q0 -13 -8 -24l-372 -512h368q19 0 19 -19v-60q0 -19 -19 -19h-485q-19 0 -19 19zM244 795l79 116q8 13 22 13h78q12 0 14 -4.5t2 -6.5q0 -5 -6 -12l-94 -118q-7 -11 -22 -11h-61
q-11 0 -13.5 4.5t-2.5 7.5q0 5 4 11z" />
    <glyph glyph-name="zacute" unicode="&#x17a;" horiz-adv-x="485" 
d="M42 19v36q0 15 8 24l260 304h-242q-19 0 -19 19v48q0 19 19 19h353q19 0 19 -19v-36q0 -15 -8 -24l-260 -304h253q19 0 19 -19v-48q0 -19 -19 -19h-364q-19 0 -19 19zM176 564l79 116q8 13 22 13h78q12 0 14 -4.5t2 -6.5q0 -5 -6 -12l-94 -118q-7 -11 -22 -11h-61
q-11 0 -13.5 4.5t-2.5 7.5q0 5 4 11z" />
    <glyph glyph-name="Zdotaccent" unicode="&#x17b;" horiz-adv-x="625" 
d="M59 90l372 512h-354q-19 0 -19 19v60q0 19 19 19h471q19 0 19 -19v-47q0 -13 -8 -24l-372 -512h368q19 0 19 -19v-60q0 -19 -19 -19h-485q-19 0 -19 19v47q0 13 8 24zM242 851q0 30 19.5 49t49.5 19t49.5 -19t19.5 -49q0 -29 -20 -48q-20 -20 -49 -20t-49 19.5t-20 48.5z
" />
    <glyph glyph-name="zdotaccent" unicode="&#x17c;" horiz-adv-x="485" 
d="M50 79l260 304h-242q-19 0 -19 19v48q0 19 19 19h353q19 0 19 -19v-36q0 -15 -8 -24l-260 -304h253q19 0 19 -19v-48q0 -19 -19 -19h-364q-19 0 -19 19v36q0 15 8 24zM174 620q0 30 19.5 49t49.5 19t49.5 -19t19.5 -49q0 -29 -20 -48q-20 -20 -49 -20t-49 19.5t-20 48.5z
" />
    <glyph glyph-name="Zcaron" unicode="&#x17d;" horiz-adv-x="625" 
d="M59 90l372 512h-354q-19 0 -19 19v60q0 19 19 19h471q19 0 19 -19v-47q0 -13 -8 -24l-372 -512h368q19 0 19 -19v-60q0 -19 -19 -19h-485q-19 0 -19 19v47q0 13 8 24zM144 917q3 7 15 7h57q16 0 24 -11l69 -80h2l69 80q8 11 24 11h57q12 0 14 -5t2 -7q0 -5 -6 -12
l-103 -118q-10 -10 -24 -10h-68q-14 0 -24 10l-103 118q-6 7 -6 13q0 2 1 4z" />
    <glyph glyph-name="zcaron" unicode="&#x17e;" horiz-adv-x="485" 
d="M50 79l260 304h-242q-19 0 -19 19v48q0 19 19 19h353q19 0 19 -19v-36q0 -15 -8 -24l-260 -304h253q19 0 19 -19v-48q0 -19 -19 -19h-364q-19 0 -19 19v36q0 15 8 24zM76 686q3 7 15 7h57q16 0 24 -11l69 -80h2l69 80q8 11 24 11h57q12 0 14 -5t2 -7q0 -5 -6 -12
l-103 -118q-10 -10 -24 -10h-68q-14 0 -24 10l-103 118q-6 7 -6 13q0 2 1 4z" />
    <glyph glyph-name="florin" unicode="&#x192;" horiz-adv-x="506" 
d="M453 706q16 -3 16 -21v-50q0 -10 -4.5 -14.5t-12.5 -3.5q-6 1 -20 1q-40 0 -58 -16.5t-27 -62.5l-19 -100h111q19 0 19 -19v-37q0 -19 -19 -19h-125l-65 -343q-15 -80 -53.5 -115t-102.5 -35q-19 0 -49 4q-16 3 -16 21v51q0 9 5 14t13 4q6 -1 19 -1q41 0 58.5 16.5
t26.5 62.5l61 321h-96q-19 0 -19 19v37q0 19 19 19h110l23 122q15 80 54 115t103 35q25 0 48 -5z" />
    <glyph glyph-name="uni01CD" unicode="&#x1cd;" horiz-adv-x="713" 
d="M24 22l274 664q6 14 22 14h72q18 0 22 -14l275 -664q2 -6 2 -10q0 -12 -17 -12h-71q-17 0 -21 14l-55 137h-341l-55 -137q-6 -14 -22 -14h-70q-17 0 -17 12q0 4 2 10zM489 246l-131 328h-3l-131 -328h265zM190 917q3 7 15 7h57q16 0 24 -11l69 -80h2l69 80q8 11 24 11h57
q12 0 14 -5t2 -7q0 -5 -6 -12l-103 -118q-10 -10 -24 -10h-68q-14 0 -24 10l-103 118q-6 7 -6 13q0 2 1 4z" />
    <glyph glyph-name="uni01CE" unicode="&#x1ce;" horiz-adv-x="613" 
d="M46 235q0 104 67 174.5t165 70.5q53 0 96 -21.5t64 -60.5h2v52q0 19 19 19h61q19 0 19 -19v-431q0 -19 -19 -19h-61q-19 0 -19 19v52h-2q-21 -38 -64 -60t-96 -22q-98 0 -165 70.5t-67 175.5zM148 235q0 -67 40.5 -111t106.5 -44t106.5 44t40.5 111t-40.5 111t-106.5 44
t-106 -44q-41 -44 -41 -111zM140 686q3 7 15 7h57q16 0 24 -11l69 -80h2l69 80q8 11 24 11h57q12 0 14 -5t2 -7q0 -5 -6 -12l-103 -118q-10 -10 -24 -10h-68q-14 0 -24 10l-103 118q-6 7 -6 13q0 2 1 4z" />
    <glyph glyph-name="uni01E2" unicode="&#x1e2;" horiz-adv-x="1071" 
d="M20 23l444 665q8 12 23 12h506q19 0 19 -19v-60q0 -19 -19 -19h-356v-204h281q19 0 19 -19v-58q0 -19 -19 -19h-281v-204h360q19 0 19 -19v-60q0 -19 -19 -19h-447q-19 0 -19 19v134h-303l-93 -141q-7 -12 -22 -12h-80q-12 0 -14.5 4.5t-2.5 7.5q0 5 4 11zM292 249h239
v356h-3zM583 814v43q0 19 19 19h262q19 0 19 -19v-43q0 -19 -19 -19h-262q-19 0 -19 19z" />
    <glyph glyph-name="uni01E3" unicode="&#x1e3;" horiz-adv-x="914" 
d="M89 236q49 36 147 36h149v10q0 59 -27 87t-86 28q-88 0 -105 -55q-6 -17 -21 -17h-62q-9 0 -14 5t-5 10q0 3 1 5q11 64 63 99.5t140 35.5q130 0 175 -79h3q64 79 182 79q106 0 172.5 -66.5t66.5 -176.5v-10q0 -24 -23 -24h-359q15 -131 148 -131q94 0 123 57q7 15 22 15
h58q10 0 14 -4.5t4 -9.5q0 -3 -2 -7q-20 -59 -78.5 -96.5t-142.5 -37.5q-134 0 -198 94h-3q-54 -94 -200 -94q-91 0 -141 38.5t-50 106.5q0 66 49 102zM487 275h280q-18 123 -138 123q-122 0 -142 -123zM238 71q65 0 106 31t41 77v23h-141q-105 0 -105 -64q0 -67 99 -67z
M307 583v43q0 19 19 19h262q19 0 19 -19v-43q0 -19 -19 -19h-262q-19 0 -19 19z" />
    <glyph glyph-name="Gcaron" unicode="&#x1e6;" horiz-adv-x="816" 
d="M158 608q102 103 258 103q117 0 205.5 -60.5t117.5 -158.5q1 -4 1 -7q0 -4 -3.5 -9t-13.5 -5h-75q-17 0 -21 16q-21 57 -78 90.5t-133 33.5q-113 0 -182 -73t-69 -188q0 -118 70.5 -189.5t183.5 -71.5q99 0 164 56.5t72 153.5h-207q-19 0 -19 19v50q0 19 19 19h293
q19 0 19 -19v-33q0 -155 -96 -250.5t-247 -95.5q-157 0 -259 103t-102 258q0 154 102 258zM251 917q3 7 15 7h57q16 0 24 -11l69 -80h2l69 80q8 11 24 11h57q12 0 14 -5t2 -7q0 -5 -6 -12l-103 -118q-10 -10 -24 -10h-68q-14 0 -24 10l-103 118q-6 7 -6 13q0 2 1 4z" />
    <glyph glyph-name="gcaron" unicode="&#x1e7;" horiz-adv-x="613" 
d="M114 410q67 70 164 70q53 0 96 -22t64 -60h3v52q0 19 19 19h60q19 0 19 -19v-441q0 -110 -66.5 -173t-183.5 -63q-95 0 -156 42t-75 115v5q0 15 19 15h62q15 0 21 -17q21 -75 130 -75q75 0 113.5 39t38.5 112v71h-4q-20 -38 -63.5 -60t-96.5 -22q-98 0 -165 69.5
t-67 170.5t68 172zM189 129q41 -44 106 -44t106 43.5t41 109.5q0 65 -41 108.5t-106 43.5t-106 -43.5t-41 -108.5q0 -66 41 -109zM135 686q3 7 15 7h57q16 0 24 -11l69 -80h2l69 80q8 11 24 11h57q12 0 14 -5t2 -7q0 -5 -6 -12l-103 -118q-10 -10 -24 -10h-68q-14 0 -24 10
l-103 118q-6 7 -6 13q0 2 1 4z" />
    <glyph glyph-name="uni01E8" unicode="&#x1e8;" horiz-adv-x="685" 
d="M89 19v662q0 19 19 19h67q19 0 19 -19v-327h69q18 0 27 -1l214 335q9 12 24 12h83q11 0 14 -4.5t3 -7.5q0 -5 -4 -11l-222 -344q196 -64 236 -312v-5q0 -16 -18 -16h-77q-17 0 -20 17q-23 127 -88.5 181.5t-180.5 54.5h-60v-234q0 -19 -19 -19h-67q-19 0 -19 19zM190 917
q3 7 15 7h57q16 0 24 -11l69 -80h2l69 80q8 11 24 11h57q12 0 14 -5t2 -7q0 -5 -6 -12l-103 -118q-10 -10 -24 -10h-68q-14 0 -24 10l-103 118q-6 7 -6 13q0 2 1 4z" />
    <glyph glyph-name="uni01E9" unicode="&#x1e9;" horiz-adv-x="557" 
d="M74 19v662q0 19 19 19h62q19 0 19 -19v-400h54q23 0 34 -1l133 178q8 11 22 11h78q12 0 14.5 -4.5t2.5 -6.5q0 -5 -5 -12l-144 -191q132 -59 160 -234v-5q0 -16 -18 -16h-66q-17 0 -20 18q-18 93 -65.5 132.5t-136.5 39.5h-43v-171q0 -19 -19 -19h-62q-19 0 -19 19z
M-43 917q3 7 15 7h57q16 0 24 -11l69 -80h2l69 80q8 11 24 11h57q12 0 14 -5t2 -7q0 -5 -6 -12l-103 -118q-10 -10 -24 -10h-68q-14 0 -24 10l-103 118q-6 7 -6 13q0 2 1 4z" />
    <glyph glyph-name="AEacute" unicode="&#x1fc;" horiz-adv-x="1071" 
d="M20 23l444 665q8 12 23 12h506q19 0 19 -19v-60q0 -19 -19 -19h-356v-204h281q19 0 19 -19v-58q0 -19 -19 -19h-281v-204h360q19 0 19 -19v-60q0 -19 -19 -19h-447q-19 0 -19 19v134h-303l-93 -141q-7 -12 -22 -12h-80q-12 0 -14.5 4.5t-2.5 7.5q0 5 4 11zM292 249h239
v356h-3zM666 795l79 116q8 13 22 13h78q12 0 14 -4.5t2 -6.5q0 -5 -6 -12l-94 -118q-7 -11 -22 -11h-61q-11 0 -13.5 4.5t-2.5 7.5q0 5 4 11z" />
    <glyph glyph-name="aeacute" unicode="&#x1fd;" horiz-adv-x="914" 
d="M89 236q49 36 147 36h149v10q0 59 -27 87t-86 28q-88 0 -105 -55q-6 -17 -21 -17h-62q-9 0 -14 5t-5 10q0 3 1 5q11 64 63 99.5t140 35.5q130 0 175 -79h3q64 79 182 79q106 0 172.5 -66.5t66.5 -176.5v-10q0 -24 -23 -24h-359q15 -131 148 -131q94 0 123 57q7 15 22 15
h58q10 0 14 -4.5t4 -9.5q0 -3 -2 -7q-20 -59 -78.5 -96.5t-142.5 -37.5q-134 0 -198 94h-3q-54 -94 -200 -94q-91 0 -141 38.5t-50 106.5q0 66 49 102zM767 275q-18 123 -138 123q-122 0 -142 -123h280zM238 71q65 0 106 31t41 77v23h-141q-105 0 -105 -64q0 -67 99 -67z
M390 564l79 116q8 13 22 13h78q12 0 14 -4.5t2 -6.5q0 -5 -6 -12l-94 -118q-7 -11 -22 -11h-61q-11 0 -13.5 4.5t-2.5 7.5q0 5 4 11z" />
    <glyph glyph-name="Oslashacute" unicode="&#x1fe;" horiz-adv-x="830" 
d="M56 350q0 152 104 256.5t255 104.5q77 0 144 -29l45 77q6 10 14 10q6 0 12 -4l38 -21q9 -6 9 -15q0 -5 -3 -11l-44 -77q67 -50 105.5 -126t38.5 -165q0 -152 -104 -256.5t-255 -104.5q-76 0 -145 30l-45 -78q-6 -10 -15 -10q-5 0 -10 3l-38 22q-10 6 -10 14q0 5 4 11
l44 78q-67 50 -105.5 126t-38.5 165zM415 88q111 0 181 74.5t70 187.5q0 131 -89 206l-260 -450q44 -18 98 -18zM164 350q0 -130 89 -205l260 449q-45 18 -98 18q-111 0 -181 -74.5t-70 -187.5zM348 795l79 116q8 13 22 13h78q12 0 14 -4.5t2 -6.5q0 -5 -6 -12l-94 -118
q-7 -11 -22 -11h-61q-11 0 -13.5 4.5t-2.5 7.5q0 5 4 11z" />
    <glyph glyph-name="oslashacute" unicode="&#x1ff;" horiz-adv-x="590" 
d="M118 410q71 70 177 70q47 0 92 -16l35 60q6 11 15 11q5 0 11 -4l27 -16q10 -6 10 -15q0 -5 -3 -11l-34 -59q96 -72 96 -195q0 -104 -71.5 -175t-177.5 -71q-47 0 -92 16l-35 -60q-6 -10 -15 -10q-5 0 -11 3l-27 16q-10 6 -10 15q0 5 3 11l34 59q-96 72 -96 196
q0 104 72 175zM143 235q0 -76 48 -121l157 271q-24 9 -53 9q-68 0 -110 -45t-42 -114zM242 83q26 -8 53 -8q67 0 109 45.5t42 114.5q0 75 -48 120zM228 564l79 116q8 13 22 13h78q12 0 14 -4.5t2 -6.5q0 -5 -6 -12l-94 -118q-7 -11 -22 -11h-61q-11 0 -13.5 4.5t-2.5 7.5
q0 5 4 11z" />
    <glyph glyph-name="uni0218" unicode="&#x218;" horiz-adv-x="626" 
d="M54 197q5 5 14 5h71q15 0 20 -17q22 -100 159 -100q73 0 113.5 29.5t40.5 79.5q0 83 -114 103l-105 19q-198 37 -198 194q0 92 66 146.5t188 54.5q236 0 260 -200v-3q0 -17 -18 -17h-69q-17 0 -20 18q-7 56 -45 81t-109 25q-145 0 -145 -102q0 -43 29 -67.5t103 -38.5
l105 -19q180 -32 180 -189q0 -98 -69.5 -154t-191.5 -56q-115 0 -184.5 50.5t-83.5 142.5q-1 3 -1 5q0 6 4 10zM258 -235l16 134q2 18 19 18h65q18 0 18 -14q0 -3 -1 -7l-35 -134q-5 -17 -21 -17h-44q-17 0 -17 15v5z" />
    <glyph glyph-name="uni0219" unicode="&#x219;" horiz-adv-x="498" 
d="M49 130q5 5 14 5h63q15 0 21 -16q18 -52 106 -52q102 0 102 65q0 26 -18.5 39.5t-65.5 20.5l-83 12q-143 20 -143 133q0 65 51.5 104t148.5 39q181 0 202 -135v-5q0 -15 -18 -15h-61q-16 0 -21 18q-13 58 -103 58q-101 0 -101 -63q0 -22 18.5 -35t66.5 -20l82 -12
q143 -21 143 -136q0 -69 -53 -107.5t-149 -38.5q-180 0 -206 126v4q0 6 4 11zM185 -235l16 134q1 18 19 18h65q18 0 18 -14q0 -3 -1 -7l-35 -134q-5 -17 -21 -17h-44q-17 0 -17 15v5z" />
    <glyph glyph-name="uni021A" unicode="&#x21a;" horiz-adv-x="595" 
d="M46 700h503q19 0 19 -19v-61q0 -19 -19 -19h-199v-582q0 -19 -19 -19h-67q-19 0 -19 19v582h-199q-19 0 -19 19v61q0 19 19 19zM223 -235l16 134q1 18 19 18h65q18 0 18 -14q0 -3 -1 -7l-35 -134q-5 -17 -21 -17h-44q-17 0 -17 15v5z" />
    <glyph glyph-name="uni021B" unicode="&#x21b;" horiz-adv-x="437" 
d="M35 469h87v112q0 19 19 19h62q19 0 19 -19v-112h159q19 0 19 -19v-47q0 -19 -19 -19h-159v-209q0 -52 22 -73.5t71 -21.5q38 0 68 11q7 3 11 3q11 0 11 -16v-50q0 -15 -14 -22q-41 -17 -95 -17q-174 0 -174 178v217h-87q-19 0 -19 19v47q0 19 19 19zM193 -235l16 134
q1 18 19 18h65q18 0 18 -14q0 -3 -1 -7l-35 -134q-5 -17 -21 -17h-44q-17 0 -17 15v5z" />
    <glyph glyph-name="uni0237" unicode="&#x237;" horiz-adv-x="247" 
d="M-59 -201v52q0 16 16 16h5q18 -2 26 -2q46 0 66 22t20 77v486q0 19 19 19h62q19 0 19 -19v-490q0 -97 -40.5 -142t-122.5 -45q-30 0 -53 6q-17 3 -17 20z" />
    <glyph glyph-name="circumflex" unicode="&#x2c6;" 
d="M139 564l103 118q11 11 24 11h68q13 0 24 -11l103 -118q6 -7 6 -12q0 -2 -2 -6.5t-14 -4.5h-57q-15 0 -24 10l-69 80h-2l-69 -80q-9 -10 -23 -10h-58q-12 0 -14 4.5t-2 6.5q0 5 6 12z" />
    <glyph glyph-name="caron" unicode="&#x2c7;" 
d="M134 686q3 7 15 7h57q16 0 24 -11l69 -80h2l69 80q8 11 24 11h57q12 0 14 -5t2 -7q0 -5 -6 -12l-103 -118q-10 -10 -24 -10h-68q-14 0 -24 10l-103 118q-6 7 -6 13q0 2 1 4z" />
    <glyph glyph-name="breve" unicode="&#x2d8;" 
d="M163 685h48q17 0 20 -18q9 -59 69 -59t69 59q3 18 20 18h48q19 0 19 -19q0 -54 -42 -90q-43 -37 -114 -37t-113.5 36.5t-42.5 90.5q0 19 19 19z" />
    <glyph glyph-name="dotaccent" unicode="&#x2d9;" 
d="M231 620q0 30 19.5 49t49.5 19t49.5 -19t19.5 -49q0 -29 -20 -48q-20 -20 -49 -20t-49 19.5t-20 48.5z" />
    <glyph glyph-name="ring" unicode="&#x2da;" 
d="M176 651q0 49 36 83t88 34t88 -34t36 -83t-36 -82q-36 -34 -88 -34t-88 33.5t-36 82.5zM245 651q0 -24 15 -39q15 -16 40 -16t40 15.5t15 39.5t-15 39.5t-40 15.5t-40 -15.5t-15 -39.5z" />
    <glyph glyph-name="ogonek" unicode="&#x2db;" 
d="M317 -217q-56 0 -90 27t-34 70q0 94 137 142l43 6v-14q0 -15 -13 -22q-47 -31 -65.5 -52t-18.5 -41q0 -37 54 -37q14 0 23 1q20 3 20 -16v-40q0 -18 -18 -21q-19 -3 -38 -3z" />
    <glyph glyph-name="tilde" unicode="&#x2dc;" 
d="M130 566q4 58 29 89t67 31q7 0 13 -0.5t12 -2.5t10.5 -3t10.5 -4.5t9 -5t9.5 -6t8.5 -5.5t8.5 -6t7.5 -6q33 -25 48 -25q27 0 33 44q1 19 19 19h37q18 0 18 -19q0 -5 -1 -10q-4 -54 -29.5 -82.5t-65.5 -28.5q-38 0 -89 40q-33 25 -48 25q-27 0 -33 -45q-2 -19 -19 -19
h-37q-18 0 -18 17v3z" />
    <glyph glyph-name="hungarumlaut" unicode="&#x2dd;" 
d="M175 564l83 117q8 12 23 12h57q12 0 14.5 -4t2.5 -7q0 -5 -6 -12l-92 -118q-8 -11 -23 -11h-47q-11 0 -13.5 4.5t-2.5 7.5q0 5 4 11zM356 564l83 117q7 12 22 12h57q12 0 14.5 -4.5t2.5 -6.5q0 -5 -5 -12l-92 -118q-9 -11 -23 -11h-47q-12 0 -14.5 4.5t-2.5 6.5q0 5 5 12
z" />
    <glyph glyph-name="gravecomb" unicode="&#x300;" horiz-adv-x="0" 
d="M-464 686q3 7 15 7h77q13 0 23 -13l79 -116q4 -6 4 -11q0 -3 -2.5 -7.5t-14.5 -4.5h-60q-15 0 -23 11l-94 118q-5 6 -5 12q0 2 1 4z" />
    <glyph glyph-name="acutecomb" unicode="&#x301;" horiz-adv-x="0" 
d="M-345 564l79 116q8 13 22 13h78q12 0 14 -4.5t2 -6.5q0 -5 -6 -12l-94 -118q-7 -11 -22 -11h-61q-11 0 -13.5 4.5t-2.5 7.5q0 5 4 11z" />
    <glyph glyph-name="uni0302" unicode="&#x302;" horiz-adv-x="0" 
d="M-461 564l103 118q11 11 24 11h68q13 0 24 -11l103 -118q6 -7 6 -12q0 -2 -2 -6.5t-14 -4.5h-57q-15 0 -24 10l-69 80h-2l-69 -80q-9 -10 -23 -10h-58q-12 0 -14 4.5t-2 6.5q0 5 6 12z" />
    <glyph glyph-name="tildecomb" unicode="&#x303;" horiz-adv-x="0" 
d="M-470 566q4 58 29 89t67 31q7 0 13 -0.5t12 -2.5t10.5 -3t10.5 -4.5t9 -5t9.5 -6t8.5 -5.5t8.5 -6t7.5 -6q33 -25 48 -25q27 0 33 44q1 19 19 19h37q18 0 18 -19q0 -5 -1 -10q-4 -54 -29.5 -82.5t-65.5 -28.5q-38 0 -89 40q-33 25 -48 25q-27 0 -33 -45q-2 -19 -19 -19
h-37q-18 0 -18 17v3z" />
    <glyph glyph-name="uni0304" unicode="&#x304;" horiz-adv-x="0" 
d="M-431 645h262q19 0 19 -19v-43q0 -19 -19 -19h-262q-19 0 -19 19v43q0 19 19 19z" />
    <glyph glyph-name="uni0306" unicode="&#x306;" horiz-adv-x="0" 
d="M-437 685h48q17 0 20 -18q9 -59 69 -59t69 59q3 18 20 18h48q19 0 19 -19q0 -54 -43 -90q-42 -37 -113 -37t-113.5 36.5t-42.5 90.5q0 19 19 19z" />
    <glyph glyph-name="uni0307" unicode="&#x307;" horiz-adv-x="0" 
d="M-369 620q0 30 19.5 49t49.5 19t49.5 -19t19.5 -49q0 -29 -20 -48q-20 -20 -49 -20t-49 19.5t-20 48.5z" />
    <glyph glyph-name="uni0308" unicode="&#x308;" horiz-adv-x="0" 
d="M-455 667q19 18 48 18q28 0 46.5 -18.5t18.5 -47.5t-18.5 -48t-46.5 -19q-29 0 -47.5 19t-18.5 48t18 48zM-240 667q19 18 47 18q29 0 47.5 -18.5t18.5 -47.5t-18.5 -48t-47.5 -19q-28 0 -46.5 19t-18.5 48t18 48z" />
    <glyph glyph-name="uni030A" unicode="&#x30a;" horiz-adv-x="0" 
d="M-424 651q0 49 36 83t88 34t88 -34t36 -83t-36 -82q-36 -34 -88 -34t-88 33.5t-36 82.5zM-355 651q0 -24 15 -39q15 -16 40 -16t40 15.5t15 39.5t-15 39.5t-40 15.5t-40 -15.5t-15 -39.5z" />
    <glyph glyph-name="uni030B" unicode="&#x30b;" horiz-adv-x="0" 
d="M-425 564l83 117q8 12 23 12h57q12 0 14.5 -4t2.5 -7q0 -5 -6 -12l-92 -118q-8 -11 -23 -11h-47q-11 0 -13.5 4.5t-2.5 7.5q0 5 4 11zM-244 564l83 117q7 12 22 12h57q12 0 14.5 -4.5t2.5 -6.5q0 -5 -5 -12l-92 -118q-9 -11 -23 -11h-47q-12 0 -14.5 4.5t-2.5 6.5
q0 5 5 12z" />
    <glyph glyph-name="uni030C" unicode="&#x30c;" horiz-adv-x="0" 
d="M-466 686q3 7 15 7h57q16 0 24 -11l69 -80h2l69 80q8 11 24 11h57q12 0 14 -5t2 -7q0 -5 -6 -12l-103 -118q-10 -10 -24 -10h-68q-14 0 -24 10l-103 118q-6 7 -6 13q0 2 1 4z" />
    <glyph glyph-name="uni0312" unicode="&#x312;" horiz-adv-x="0" 
d="M-347 585l35 134q4 16 21 16h43q17 0 17 -15v-5l-15 -133q-2 -18 -20 -18h-65q-17 0 -17 14q0 3 1 7z" />
    <glyph glyph-name="uni0326" unicode="&#x326;" horiz-adv-x="0" 
d="M-369 -235l16 134q1 18 19 18h65q18 0 18 -14q0 -3 -1 -7l-35 -134q-5 -17 -21 -17h-44q-17 0 -17 15v5z" />
    <glyph glyph-name="uni0327" unicode="&#x327;" horiz-adv-x="0" 
d="M-387 -158l58 166q6 15 22 15h52q10 0 13.5 -5t3.5 -10q0 -3 -1 -7l-50 -164q-4 -16 -21 -16h-62q-17 0 -17 12q0 4 2 9z" />
    <glyph glyph-name="uni0328" unicode="&#x328;" horiz-adv-x="0" 
d="M-270 22l43 6v-14q0 -15 -13 -22q-47 -31 -65.5 -52t-18.5 -41q0 -37 54 -37q14 0 23 1h5q15 0 15 -16v-40q0 -18 -18 -21q-19 -3 -38 -3q-56 0 -90 27t-34 70q0 94 137 142z" />
    <glyph glyph-name="uni03BC" unicode="&#x3bc;" horiz-adv-x="625" 
d="M517 469q19 0 19 -19v-431q0 -19 -19 -19h-55q-19 0 -19 19v72q-19 -48 -60 -75t-93 -27q-67 0 -101 47v-233q0 -19 -19 -19h-62q-19 0 -19 19v647q0 19 19 19h62q19 0 19 -19v-241q0 -126 107 -126q64 0 102 38.5t38 112.5v216q0 19 19 19h62z" />
    <glyph glyph-name="pi" unicode="&#x3c0;" horiz-adv-x="603" 
d="M552 92q19 0 19 -19v-54q0 -19 -19 -19h-28q-68 0 -100 34t-32 103v241h-203v-359q0 -19 -19 -19h-62q-19 0 -19 19v431q0 19 19 19h365q19 0 19 -19v-300q0 -31 13 -44.5t42 -13.5h5z" />
    <glyph glyph-name="uni1E20" unicode="&#x1e20;" horiz-adv-x="816" 
d="M158 608q102 103 258 103q117 0 205.5 -60.5t117.5 -158.5q1 -4 1 -7q0 -4 -3.5 -9t-13.5 -5h-75q-17 0 -21 16q-21 57 -78 90.5t-133 33.5q-113 0 -182 -73t-69 -188q0 -118 70.5 -189.5t183.5 -71.5q99 0 164 56.5t72 153.5h-207q-19 0 -19 19v50q0 19 19 19h293
q19 0 19 -19v-33q0 -155 -96 -250.5t-247 -95.5q-157 0 -259 103t-102 258q0 154 102 258zM286 876h262q19 0 19 -19v-43q0 -19 -19 -19h-262q-19 0 -19 19v43q0 19 19 19z" />
    <glyph glyph-name="uni1E21" unicode="&#x1e21;" horiz-adv-x="613" 
d="M114 410q67 70 164 70q53 0 96 -22t64 -60h3v52q0 19 19 19h60q19 0 19 -19v-441q0 -110 -66.5 -173t-183.5 -63q-95 0 -156 42t-75 115v5q0 15 19 15h62q15 0 21 -17q21 -75 130 -75q75 0 113.5 39t38.5 112v71h-4q-20 -38 -63.5 -60t-96.5 -22q-98 0 -165 69.5
t-67 170.5t68 172zM148 238q0 -66 41 -109.5t106 -43.5t106 43.5t41 109.5q0 65 -41 108.5t-106 43.5t-106 -43.5t-41 -108.5zM171 645h262q19 0 19 -19v-43q0 -19 -19 -19h-262q-19 0 -19 19v43q0 19 19 19z" />
    <glyph glyph-name="uni1E30" unicode="&#x1e30;" horiz-adv-x="685" 
d="M108 700h67q19 0 19 -19v-327h69q18 0 27 -1l214 335q9 12 24 12h83q11 0 14 -4.5t3 -7.5q0 -5 -4 -11l-222 -344q196 -64 236 -312v-5q0 -16 -18 -16h-77q-17 0 -20 17q-23 127 -88.5 181.5t-180.5 54.5h-60v-234q0 -19 -19 -19h-67q-19 0 -19 19v662q0 19 19 19z
M289 795l79 116q8 13 22 13h78q12 0 14 -4.5t2 -6.5q0 -5 -6 -12l-94 -118q-7 -11 -22 -11h-61q-11 0 -13.5 4.5t-2.5 7.5q0 5 4 11z" />
    <glyph glyph-name="uni1E31" unicode="&#x1e31;" horiz-adv-x="557" 
d="M74 681q0 19 19 19h62q19 0 19 -19v-400h54q23 0 34 -1l133 178q8 11 22 11h78q12 0 14.5 -4.5t2.5 -6.5q0 -5 -5 -12l-144 -191q132 -59 160 -234v-5q0 -16 -18 -16h-66q-17 0 -20 18q-18 93 -65.5 132.5t-136.5 39.5h-43v-171q0 -19 -19 -19h-62q-19 0 -19 19v662z
M57 795l79 116q8 13 22 13h78q12 0 14 -4.5t2 -6.5q0 -5 -6 -12l-94 -118q-7 -11 -22 -11h-61q-11 0 -13.5 4.5t-2.5 7.5q0 5 4 11z" />
    <glyph glyph-name="uni1E3E" unicode="&#x1e3e;" horiz-adv-x="914" 
d="M89 19v662q0 19 19 19h76q16 0 23 -13l249 -402h2l249 402q7 13 23 13h77q19 0 19 -19v-662q0 -19 -19 -19h-68q-19 0 -19 19v501h-1l-213 -340q-8 -13 -23 -13h-52q-15 0 -23 13l-213 340h-1v-501q0 -19 -19 -19h-67q-19 0 -19 19zM390 795l79 116q8 13 22 13h78
q12 0 14 -4.5t2 -6.5q0 -5 -6 -12l-94 -118q-7 -11 -22 -11h-61q-11 0 -13.5 4.5t-2.5 7.5q0 5 4 11z" />
    <glyph glyph-name="uni1E3F" unicode="&#x1e3f;" horiz-adv-x="880" 
d="M74 19v431q0 19 19 19h59q19 0 19 -19v-56h4q18 41 56.5 63.5t89.5 22.5q108 0 150 -94h4q21 45 64.5 69.5t98.5 24.5q81 0 128 -52t47 -143v-266q0 -19 -19 -19h-62q-19 0 -19 19v241q0 64 -26.5 96.5t-74.5 32.5q-52 0 -85 -35.5t-33 -97.5v-237q0 -19 -19 -19h-62
q-19 0 -19 19v241q0 64 -27 96.5t-75 32.5q-52 0 -85 -36t-33 -97v-237q0 -19 -19 -19h-62q-19 0 -19 19zM384 564l79 116q8 13 22 13h78q12 0 14 -4.5t2 -6.5q0 -5 -6 -12l-94 -118q-7 -11 -22 -11h-61q-11 0 -13.5 4.5t-2.5 7.5q0 5 4 11z" />
    <glyph glyph-name="uni1E40" unicode="&#x1e40;" horiz-adv-x="914" 
d="M108 700h76q16 0 23 -13l249 -402h2l249 402q7 13 23 13h77q19 0 19 -19v-662q0 -19 -19 -19h-68q-19 0 -19 19v501h-1l-213 -340q-8 -13 -23 -13h-52q-15 0 -23 13l-213 340h-1v-501q0 -19 -19 -19h-67q-19 0 -19 19v662q0 19 19 19zM388 851q0 30 19.5 49t49.5 19
t49.5 -19t19.5 -49q0 -29 -20 -48q-20 -20 -49 -20t-49 19.5t-20 48.5z" />
    <glyph glyph-name="uni1E41" unicode="&#x1e41;" horiz-adv-x="880" 
d="M74 19v431q0 19 19 19h59q19 0 19 -19v-56h4q18 41 56.5 63.5t89.5 22.5q108 0 150 -94h4q21 45 64.5 69.5t98.5 24.5q81 0 128 -52t47 -143v-266q0 -19 -19 -19h-62q-19 0 -19 19v241q0 64 -26.5 96.5t-74.5 32.5q-52 0 -85 -35.5t-33 -97.5v-237q0 -19 -19 -19h-62
q-19 0 -19 19v241q0 64 -27 96.5t-75 32.5q-52 0 -85 -36t-33 -97v-237q0 -19 -19 -19h-62q-19 0 -19 19zM382 620q0 30 19.5 49t49.5 19t49.5 -19t19.5 -49q0 -29 -20 -48q-20 -20 -49 -20t-49 19.5t-20 48.5z" />
    <glyph glyph-name="uni1E44" unicode="&#x1e44;" horiz-adv-x="771" 
d="M89 19v662q0 19 19 19h67q15 0 23 -11l377 -514h2v506q0 19 19 19h67q19 0 19 -19v-662q0 -19 -19 -19h-68q-15 0 -23 11l-377 513h-1v-505q0 -19 -19 -19h-67q-19 0 -19 19zM316 851q0 30 19.5 49t49.5 19t49.5 -19t19.5 -49q0 -29 -20 -48q-20 -20 -49 -20t-49 19.5
t-20 48.5z" />
    <glyph glyph-name="uni1E45" unicode="&#x1e45;" horiz-adv-x="586" 
d="M74 450q0 19 19 19h60q19 0 19 -19v-53h3q41 83 159 83q87 0 136.5 -52t49.5 -145v-264q0 -19 -19 -19h-62q-19 0 -19 19v240q0 130 -114 130q-61 0 -96.5 -36t-35.5 -97v-237q0 -19 -19 -19h-62q-19 0 -19 19v431zM248 669q19 19 49 19t49.5 -19t19.5 -49q0 -29 -20 -48
q-20 -20 -49 -20t-49 19.5t-20 48.5q0 30 20 49z" />
    <glyph glyph-name="Wgrave" unicode="&#x1e80;" horiz-adv-x="1051" 
d="M44 700h72q16 0 21 -15l166 -526h3l166 526q4 15 21 15h65q16 0 21 -15l166 -526h3l166 526q4 15 21 15h71q17 0 17 -14q0 -3 -1 -8l-217 -663q-5 -15 -21 -15h-69q-16 0 -21 15l-167 518h-3l-167 -518q-5 -15 -21 -15h-70q-15 0 -21 15l-216 663q-2 6 -2 10q0 12 17 12z
M391 917q3 7 15 7h77q13 0 23 -13l79 -116q4 -6 4 -11q0 -3 -2.5 -7.5t-14.5 -4.5h-60q-15 0 -23 11l-94 118q-5 6 -5 12q0 2 1 4z" />
    <glyph glyph-name="wgrave" unicode="&#x1e81;" horiz-adv-x="833" 
d="M48 469h64q16 0 22 -15l113 -328h3l116 328q6 15 22 15h57q16 0 22 -15l117 -328h2l113 328q6 15 22 15h64q17 0 17 -12q0 -4 -2 -10l-158 -432q-6 -15 -22 -15h-65q-17 0 -21 15l-116 321h-3l-115 -321q-6 -15 -22 -15h-65q-16 0 -22 15l-158 432q-2 6 -2 10q0 12 17 12
zM282 686q3 7 15 7h77q13 0 23 -13l79 -116q4 -6 4 -11q0 -3 -2.5 -7.5t-14.5 -4.5h-60q-15 0 -23 11l-94 118q-5 6 -5 12q0 2 1 4z" />
    <glyph glyph-name="Wacute" unicode="&#x1e82;" horiz-adv-x="1051" 
d="M44 700h72q16 0 21 -15l166 -526h3l166 526q4 15 21 15h65q16 0 21 -15l166 -526h3l166 526q4 15 21 15h71q17 0 17 -14q0 -3 -1 -8l-217 -663q-5 -15 -21 -15h-69q-16 0 -21 15l-167 518h-3l-167 -518q-5 -15 -21 -15h-70q-15 0 -21 15l-216 663q-2 6 -2 10q0 12 17 12z
M459 795l79 116q8 13 22 13h78q12 0 14 -4.5t2 -6.5q0 -5 -6 -12l-94 -118q-7 -11 -22 -11h-61q-11 0 -13.5 4.5t-2.5 7.5q0 5 4 11z" />
    <glyph glyph-name="wacute" unicode="&#x1e83;" horiz-adv-x="833" 
d="M48 469h64q16 0 22 -15l113 -328h3l116 328q6 15 22 15h57q16 0 22 -15l117 -328h2l113 328q6 15 22 15h64q17 0 17 -12q0 -4 -2 -10l-158 -432q-6 -15 -22 -15h-65q-17 0 -21 15l-116 321h-3l-115 -321q-6 -15 -22 -15h-65q-16 0 -22 15l-158 432q-2 6 -2 10q0 12 17 12
zM350 564l79 116q8 13 22 13h78q12 0 14 -4.5t2 -6.5q0 -5 -6 -12l-94 -118q-7 -11 -22 -11h-61q-11 0 -13.5 4.5t-2.5 7.5q0 5 4 11z" />
    <glyph glyph-name="Wdieresis" unicode="&#x1e84;" horiz-adv-x="1051" 
d="M44 700h72q16 0 21 -15l166 -526h3l166 526q4 15 21 15h65q16 0 21 -15l166 -526h3l166 526q4 15 21 15h71q17 0 17 -14q0 -3 -1 -8l-217 -663q-5 -15 -21 -15h-69q-16 0 -21 15l-167 518h-3l-167 -518q-5 -15 -21 -15h-70q-15 0 -21 15l-216 663q-2 6 -2 10q0 12 17 12z
M371 898q18 18 47 18q28 0 46.5 -18.5t18.5 -47.5t-18.5 -48t-46.5 -19q-29 0 -47.5 19t-18.5 48t19 48zM586 898q18 18 46 18q29 0 47.5 -18.5t18.5 -47.5t-18.5 -48t-47.5 -19q-28 0 -46.5 19t-18.5 48t19 48z" />
    <glyph glyph-name="wdieresis" unicode="&#x1e85;" horiz-adv-x="833" 
d="M48 469h64q16 0 22 -15l113 -328h3l116 328q6 15 22 15h57q16 0 22 -15l117 -328h2l113 328q6 15 22 15h64q17 0 17 -12q0 -4 -2 -10l-158 -432q-6 -15 -22 -15h-65q-17 0 -21 15l-116 321h-3l-115 -321q-6 -15 -22 -15h-65q-16 0 -22 15l-158 432q-2 6 -2 10q0 12 17 12
zM263 667q18 18 47 18q28 0 46.5 -18.5t18.5 -47.5t-18.5 -48t-46.5 -19q-29 0 -47.5 19t-18.5 48t19 48zM459 619q0 29 18.5 47.5t46.5 18.5q29 0 47.5 -18.5t18.5 -47.5t-18.5 -48t-47.5 -19q-28 0 -46.5 19t-18.5 48z" />
    <glyph glyph-name="uni1E90" unicode="&#x1e90;" horiz-adv-x="625" 
d="M59 90l372 512h-354q-19 0 -19 19v60q0 19 19 19h471q19 0 19 -19v-47q0 -13 -8 -24l-372 -512h368q19 0 19 -19v-60q0 -19 -19 -19h-485q-19 0 -19 19v47q0 13 8 24zM149 795l103 118q11 11 24 11h68q13 0 24 -11l103 -118q6 -7 6 -12q0 -2 -2 -6.5t-14 -4.5h-57
q-15 0 -24 10l-69 80h-2l-69 -80q-9 -10 -23 -10h-58q-12 0 -14 4.5t-2 6.5q0 5 6 12z" />
    <glyph glyph-name="uni1E91" unicode="&#x1e91;" horiz-adv-x="485" 
d="M50 79l260 304h-242q-19 0 -19 19v48q0 19 19 19h353q19 0 19 -19v-36q0 -15 -8 -24l-260 -304h253q19 0 19 -19v-48q0 -19 -19 -19h-364q-19 0 -19 19v36q0 15 8 24zM81 564l103 118q11 11 24 11h68q13 0 24 -11l103 -118q6 -7 6 -12q0 -2 -2 -6.5t-14 -4.5h-57
q-15 0 -24 10l-69 80h-2l-69 -80q-9 -10 -23 -10h-58q-12 0 -14 4.5t-2 6.5q0 5 6 12z" />
    <glyph glyph-name="Germandbls" unicode="&#x1e9e;" horiz-adv-x="730" 
d="M481 379q205 -20 205 -188q0 -95 -63.5 -147t-182.5 -52q-47 0 -90 7q-18 3 -18 21v56q0 20 21 17q41 -6 78 -6q147 0 147 106q0 54 -39.5 79t-131.5 25h-27q-19 0 -19 19v52q0 11 8 24l150 184q-52 39 -143 39q-97 0 -142.5 -43t-45.5 -135v-418q0 -19 -19 -19h-68
q-19 0 -19 19v421q0 271 287 271q183 0 270 -112q11 -12 0 -26z" />
    <glyph glyph-name="Ygrave" unicode="&#x1ef2;" horiz-adv-x="663" 
d="M22 694q4 6 15 6h77q14 0 23 -13l194 -308h1l194 308q7 13 22 13h77q11 0 14 -4.5t3 -7.5q0 -5 -4 -11l-253 -396v-262q0 -19 -19 -19h-69q-19 0 -19 19v262l-253 396q-4 6 -4 12q0 2 1 5zM198 917q3 7 15 7h77q13 0 23 -13l79 -116q4 -6 4 -11q0 -3 -2.5 -7.5
t-14.5 -4.5h-60q-15 0 -23 11l-94 118q-5 6 -5 12q0 2 1 4z" />
    <glyph glyph-name="ygrave" unicode="&#x1ef3;" horiz-adv-x="586" 
d="M84 -62h61q15 0 21 -17q21 -63 117 -63q133 0 133 136v89h-4q-19 -38 -60.5 -60.5t-98.5 -22.5q-87 0 -135.5 52t-48.5 143v255q0 19 19 19h62q19 0 19 -19v-230q0 -130 112 -130q59 0 95.5 36t36.5 97v227q0 19 19 19h62q19 0 19 -19v-456q0 -105 -61 -163t-169 -58
q-92 0 -148.5 39.5t-68.5 106.5q-1 3 -1 6q0 13 19 13zM156 686q3 7 15 7h77q13 0 23 -13l79 -116q4 -6 4 -11q0 -3 -2.5 -7.5t-14.5 -4.5h-60q-15 0 -23 11l-94 118q-5 6 -5 12q0 2 1 4z" />
    <glyph glyph-name="uni2000" unicode="&#x2000;" horiz-adv-x="500" 
 />
    <glyph glyph-name="uni2001" unicode="&#x2001;" horiz-adv-x="1000" 
 />
    <glyph glyph-name="uni2002" unicode="&#x2002;" horiz-adv-x="500" 
 />
    <glyph glyph-name="uni2003" unicode="&#x2003;" horiz-adv-x="1000" 
 />
    <glyph glyph-name="uni2009" unicode="&#x2009;" horiz-adv-x="226" 
 />
    <glyph glyph-name="uni200A" unicode="&#x200a;" horiz-adv-x="92" 
 />
    <glyph glyph-name="uni200B" unicode="&#x200b;" horiz-adv-x="0" 
 />
    <glyph glyph-name="endash" unicode="&#x2013;" horiz-adv-x="500" 
d="M69 227q-19 0 -19 19v53q0 19 19 19h362q19 0 19 -19v-53q0 -19 -19 -19h-362z" />
    <glyph glyph-name="emdash" unicode="&#x2014;" horiz-adv-x="1000" 
d="M69 227q-19 0 -19 19v53q0 19 19 19h862q19 0 19 -19v-53q0 -19 -19 -19h-862z" />
    <glyph glyph-name="quoteleft" unicode="&#x2018;" horiz-adv-x="235" 
d="M63 455q-22 0 -16 21l59 219q4 16 22 16h45q21 0 18 -21l-43 -218q-3 -17 -21 -17h-64z" />
    <glyph glyph-name="quoteright" unicode="&#x2019;" horiz-adv-x="235" 
d="M173 711q10 0 14.5 -6t1.5 -15l-60 -219q-4 -16 -22 -16h-45q-22 0 -17 21l43 218q3 17 21 17h64z" />
    <glyph glyph-name="quotesinglbase" unicode="&#x201a;" horiz-adv-x="249" 
d="M62 -138q-10 0 -14.5 6t-2.5 15l42 218q3 18 21 18h64q22 0 17 -21l-60 -219q-4 -17 -22 -17h-45z" />
    <glyph glyph-name="quotedblleft" unicode="&#x201c;" horiz-adv-x="423" 
d="M63 455q-22 0 -16 21l59 219q4 16 22 16h45q21 0 18 -21l-43 -218q-3 -17 -21 -17h-64zM250 455q-22 0 -16 21l59 219q4 16 22 16h46q22 0 17 -21l-43 -218q-3 -17 -21 -17h-64z" />
    <glyph glyph-name="quotedblright" unicode="&#x201d;" horiz-adv-x="423" 
d="M173 711q10 0 14.5 -6t1.5 -15l-60 -219q-4 -16 -22 -16h-45q-22 0 -17 21l43 218q3 17 21 17h64zM360 711q10 0 14.5 -6t1.5 -15l-60 -219q-3 -16 -21 -16h-46q-22 0 -17 21l43 218q3 17 21 17h64z" />
    <glyph glyph-name="quotedblbase" unicode="&#x201e;" horiz-adv-x="432" 
d="M62 -138q-10 0 -14.5 6t-2.5 15l42 218q3 18 21 18h64q22 0 17 -21l-60 -219q-4 -17 -22 -17h-45zM245 -138q-10 0 -14.5 6t-2.5 15l43 218q3 18 21 18h64q10 0 14.5 -6t1.5 -15l-60 -219q-4 -17 -22 -17h-45z" />
    <glyph glyph-name="dagger" unicode="&#x2020;" horiz-adv-x="507" 
d="M451 492q19 0 19 -19v-54q0 -19 -19 -19h-147v-511q0 -19 -19 -19h-63q-19 0 -19 19v511h-146q-19 0 -19 19v54q0 19 19 19h146v223q0 19 19 19h63q19 0 19 -19v-223h147z" />
    <glyph glyph-name="daggerdbl" unicode="&#x2021;" horiz-adv-x="547" 
d="M471 400h-147v-199h147q19 0 19 -19v-53q0 -19 -19 -19h-147v-221q0 -19 -19 -19h-63q-19 0 -19 19v221h-146q-19 0 -19 19v53q0 19 19 19h146v199h-146q-19 0 -19 19v54q0 19 19 19h146v223q0 19 19 19h63q19 0 19 -19v-223h147q19 0 19 -19v-54q0 -19 -19 -19z" />
    <glyph glyph-name="bullet" unicode="&#x2022;" horiz-adv-x="523" 
d="M261 205q-66 0 -110 44.5t-44 109.5q0 66 44 110.5t110 44.5t110.5 -45t44.5 -110t-44.5 -109.5t-110.5 -44.5z" />
    <glyph glyph-name="ellipsis" unicode="&#x2026;" horiz-adv-x="768" 
d="M126 -9q-32 0 -51 19.5t-19 50.5t19 50.5t51 19.5t51 -19.5t19 -50.5t-19 -50.5t-51 -19.5zM384 -9q-32 0 -51 19.5t-19 50.5t19 50.5t51 19.5t51 -19.5t19 -50.5t-19 -50.5t-51 -19.5zM641 -9q-31 0 -50 19.5t-19 50.5t19 50.5t50 19.5t50.5 -19.5t19.5 -50.5
t-19.5 -50.5t-50.5 -19.5z" />
    <glyph glyph-name="perthousand" unicode="&#x2030;" horiz-adv-x="1276" 
d="M218 350q-77 0 -128.5 52t-51.5 129t52 128.5t128 51.5q77 0 129 -52t52 -128q0 -77 -52 -129t-129 -52zM181 0q-11 0 -15 6.5t2 16.5l439 665q9 12 23 12h54q11 0 15 -6.5t-3 -16.5l-438 -665q-9 -12 -23 -12h-54zM218 429q44 0 70 28t26 74t-26.5 73.5t-69.5 27.5
t-69.5 -27.5t-26.5 -73.5t26.5 -74t69.5 -28zM647 -11q-77 0 -129 51.5t-52 128.5t52 129t129 52t128.5 -52t51.5 -129t-51.5 -128.5t-128.5 -51.5zM1058 -11q-77 0 -129 51.5t-52 128.5t52 129t129 52t128.5 -52t51.5 -129t-52 -128.5t-128 -51.5zM647 68q43 0 69.5 27.5
t26.5 73.5t-26.5 74t-69.5 28q-44 0 -70 -28t-26 -74t26.5 -73.5t69.5 -27.5zM1058 68q43 0 69.5 27.5t26.5 73.5t-26.5 74t-69.5 28q-44 0 -70 -28t-26 -74t26.5 -73.5t69.5 -27.5z" />
    <glyph glyph-name="guilsinglleft" unicode="&#x2039;" horiz-adv-x="324" 
d="M154 234l105 -161q6 -10 2.5 -16.5t-15.5 -6.5h-67q-14 0 -23 12l-103 159q-8 13 0 26l103 159q9 12 23 12h67q12 0 15.5 -6.5t-2.5 -16.5z" />
    <glyph glyph-name="guilsinglright" unicode="&#x203a;" horiz-adv-x="324" 
d="M271 247q8 -13 0 -26l-103 -159q-9 -12 -23 -12h-67q-12 0 -15.5 6.5t2.5 16.5l105 161l-105 161q-6 10 -2.5 16.5t15.5 6.5h67q14 0 23 -12z" />
    <glyph glyph-name="fraction" unicode="&#x2044;" horiz-adv-x="532" 
d="M27 0q-11 0 -15 6.5t2 16.5l418 665q7 12 23 12h49q12 0 16 -6.5t-2 -16.5l-418 -665q-8 -12 -23 -12h-50z" />
    <glyph glyph-name="uni2070" unicode="&#x2070;" horiz-adv-x="372" 
d="M186 326q-72 0 -113 50.5t-41 142.5q0 91 41 141.5t113 50.5t113 -50.5t41 -141.5q0 -92 -41 -142.5t-113 -50.5zM186 397q76 0 76 122q0 60 -20.5 90t-55.5 30q-75 0 -75 -120q0 -122 75 -122z" />
    <glyph glyph-name="uni2074" unicode="&#x2074;" horiz-adv-x="343" 
d="M302 472q19 0 19 -19v-28q0 -19 -19 -19h-24v-54q0 -19 -19 -19h-34q-19 0 -19 19v54h-164q-19 0 -19 19v30q0 13 7 24l157 214q7 11 22 11h50q19 0 19 -19v-213h24zM103 472h103v141z" />
    <glyph glyph-name="uni2075" unicode="&#x2075;" horiz-adv-x="328" 
d="M176 578q57 0 92.5 -34t35.5 -89q0 -58 -38.5 -93.5t-101.5 -35.5q-51 0 -89 27q-35 27 -44 69q-3 20 18 20h38q15 0 21 -15q14 -32 56 -32q30 0 46.5 16.5t16.5 44.5t-16.5 44t-44.5 16q-30 0 -49 -19q-13 -10 -24 -10h-42q-20 0 -17 20l23 179q3 18 20 18h186
q19 0 19 -19v-30q0 -19 -19 -19h-143l-10 -72q31 14 66 14z" />
    <glyph glyph-name="uni2076" unicode="&#x2076;" horiz-adv-x="343" 
d="M192 575q55 0 90.5 -34t35.5 -88q0 -57 -38 -92t-101 -35q-61 0 -101 37q-46 46 -46 149q0 98 39.5 148.5t112.5 50.5q101 0 124 -87q6 -21 -17 -21h-37q-14 0 -22 15q-12 26 -50 26q-66 0 -74 -99q33 30 84 30zM178 391q28 0 45.5 17t17.5 45t-17 44.5t-45 16.5t-46 -17
t-18 -44t17.5 -44.5t45.5 -17.5z" />
    <glyph glyph-name="uni2077" unicode="&#x2077;" horiz-adv-x="290" 
d="M250 704q19 0 19 -19v-31q0 -14 -5 -24l-129 -283q-6 -14 -22 -14h-42q-23 0 -14 22l128 279h-145q-19 0 -19 19v32q0 19 19 19h210z" />
    <glyph glyph-name="uni2078" unicode="&#x2078;" horiz-adv-x="342" 
d="M171 326q-66 0 -104 29.5t-38 78.5q0 66 65 93q-55 26 -55 83q0 45 35 73t97 28t97 -28t35 -73q0 -56 -55 -83q65 -27 65 -93q0 -49 -38 -78.5t-104 -29.5zM171 555q56 0 56 45q0 21 -14.5 33.5t-41.5 12.5q-56 0 -56 -46q0 -45 56 -45zM171 391q64 0 64 50q0 49 -64 49
t-64 -49q0 -23 16.5 -36.5t47.5 -13.5z" />
    <glyph glyph-name="uni2079" unicode="&#x2079;" horiz-adv-x="345" 
d="M267 673q46 -45 46 -147q0 -99 -39 -149.5t-113 -50.5q-50 0 -83 24q-33 25 -43 63q-2 10 3 15.5t15 5.5h39q13 0 21 -15q15 -27 50 -27q65 0 73 97q-32 -28 -83 -28q-55 0 -90.5 34t-35.5 89q0 56 38 91.5t101 35.5q62 0 101 -38zM166 522q28 0 46 17.5t18 43.5
q0 28 -17.5 45.5t-45.5 17.5t-45.5 -17t-17.5 -45t17 -45t45 -17z" />
    <glyph glyph-name="Euro" unicode="&#x20ac;" horiz-adv-x="654" 
d="M591 192q22 0 16 -24q-20 -87 -79.5 -133t-142.5 -46q-101 0 -170 68t-91 187h-63q-19 0 -19 19v29q0 19 19 19h55q-1 13 -1 39t1 39h-55q-19 0 -19 19v29q0 19 19 19h63q22 119 91 187t170 68q83 0 143 -47t79 -135q6 -21 -16 -21h-65q-16 0 -21 17q-11 45 -43 69
t-76 24q-58 0 -98.5 -41t-56.5 -121h204q19 0 19 -19v-29q0 -19 -19 -19h-213q-1 -12 -1 -39t1 -39h213q19 0 19 -19v-29q0 -19 -19 -19h-204q16 -80 56.5 -121t98.5 -41q44 0 76 24t43 69q5 17 21 17h65z" />
    <glyph glyph-name="uni2116" unicode="&#x2116;" horiz-adv-x="1224" 
d="M89 681q0 19 19 19h67q15 0 23 -11l377 -514h2v506q0 19 19 19h67q19 0 19 -19v-662q0 -19 -19 -19h-68q-15 0 -23 11l-377 513h-1v-505q0 -19 -19 -19h-67q-19 0 -19 19v662zM796 530q0 77 52.5 129t129.5 52t129 -52t52 -129t-52 -129t-129 -52t-129.5 52t-52.5 129z
M908 456q26 -29 70 -29q43 0 69.5 28.5t26.5 74.5t-26.5 74.5t-69.5 28.5t-70 -28.5t-27 -74.5t27 -74zM811 193v53q0 19 19 19h296q19 0 19 -19v-53q0 -19 -19 -19h-296q-19 0 -19 19z" />
    <glyph glyph-name="trademark" unicode="&#x2122;" horiz-adv-x="795" 
d="M283 700q19 0 19 -19v-35q0 -19 -19 -19h-70v-226q0 -19 -19 -19h-38q-19 0 -19 19v226h-70q-19 0 -19 19v35q0 19 19 19h216zM709 700q19 0 19 -19v-280q0 -19 -19 -19h-36q-19 0 -19 19v186h-2l-76 -112q-9 -11 -23 -11h-18q-14 0 -23 11l-76 112h-2v-186
q0 -19 -19 -19h-36q-19 0 -19 19v280q0 19 19 19h50q13 0 23 -13l91 -135h2l91 135q10 13 23 13h50z" />
    <glyph glyph-name="uni2126" unicode="&#x2126;" horiz-adv-x="832" 
d="M99 0q-19 0 -19 19v58q0 19 19 19h124v2q-68 40 -105.5 112t-37.5 159q0 147 97.5 244.5t238.5 97.5t238.5 -97.5t97.5 -245.5q0 -87 -37 -158.5t-105 -111.5v-2h123q19 0 19 -19v-58q0 -19 -19 -19h-245q-19 0 -19 19v64q0 15 14 23q164 83 164 257q0 110 -64.5 180
t-166.5 70t-166.5 -70t-64.5 -180q0 -174 164 -257q14 -7 14 -23v-64q0 -19 -19 -19h-245z" />
    <glyph glyph-name="estimated" unicode="&#x212e;" horiz-adv-x="805" 
d="M403 0q-146 0 -246 97q-101 98 -101 253q0 76 27 142.5t74 112.5q101 95 246 95t245 -95q48 -46 75 -112.5t27 -142.5v-12h-584v-151q0 -66 45 -99q83 -62 192 -62q84 0 154 36.5t113 102.5l21 -16q-47 -71 -123 -110t-165 -39zM166 362h479v146q0 67 -43 101
q-86 65 -199 65q-109 0 -192 -62q-45 -33 -45 -100v-150z" />
    <glyph glyph-name="arrowleft" unicode="&#x2190;" horiz-adv-x="700" 
d="M641 400q19 0 19 -19v-62q0 -19 -19 -19h-450l138 -137q14 -12 0 -26l-37 -38q-13 -13 -26 0l-231 238q-15 13 0 26l231 238q13 13 26 0l37 -38q14 -14 0 -26l-138 -137h450z" />
    <glyph glyph-name="arrowup" unicode="&#x2191;" horiz-adv-x="700" 
d="M601 432q13 -13 0 -26l-38 -37q-14 -14 -26 0l-137 138v-450q0 -19 -19 -19h-62q-19 0 -19 19v450l-137 -138q-12 -14 -26 0l-38 37q-13 13 0 26l238 231q13 15 26 0z" />
    <glyph glyph-name="arrowright" unicode="&#x2192;" horiz-adv-x="700" 
d="M665 363q15 -13 0 -26l-231 -238q-13 -13 -26 0l-37 38q-14 14 0 26l138 137h-450q-19 0 -19 19v62q0 19 19 19h450l-138 137q-14 12 0 26l37 38q13 13 26 0z" />
    <glyph glyph-name="arrowdown" unicode="&#x2193;" horiz-adv-x="700" 
d="M601 298q13 -13 0 -26l-238 -231q-13 -15 -26 0l-238 231q-13 13 0 26l38 37q14 14 26 0l137 -138v450q0 19 19 19h62q19 0 19 -19v-450l137 138q12 14 26 0z" />
    <glyph glyph-name="uni2196" unicode="&#x2196;" horiz-adv-x="700" 
d="M594 176q13 -14 0 -27l-44 -44q-14 -13 -27 0l-318 318l1 -194q0 -19 -19 -19l-52 -1q-19 0 -19 19l4 331q2 19 19 19l331 5q19 0 19 -19v-52q0 -9 -5 -14.5t-14 -4.5l-194 1z" />
    <glyph glyph-name="uni2197" unicode="&#x2197;" horiz-adv-x="700" 
d="M580 559l4 -331q0 -18 -19 -18h-52q-19 0 -19 19l1 194l-318 -318q-13 -13 -27 0l-44 44q-13 13 0 27l318 318l-194 -1q-9 -1 -14 4.5t-5 14.5v52q0 19 18 19l332 -5q17 0 19 -19z" />
    <glyph glyph-name="uni2198" unicode="&#x2198;" horiz-adv-x="700" 
d="M565 491q19 0 19 -19l-4 -331q-2 -19 -19 -19l-331 -5q-19 0 -19 19v52q0 9 5 14.5t14 4.5l194 -1l-318 318q-13 14 0 27l44 44q14 13 27 0l318 -318l-1 194q0 19 19 19z" />
    <glyph glyph-name="uni2199" unicode="&#x2199;" horiz-adv-x="700" 
d="M594 551q13 -13 0 -27l-318 -318l194 1q9 1 14 -4.5t5 -14.5v-52q0 -19 -18 -19l-332 5q-17 0 -19 19l-4 331q0 18 19 18h52q19 0 19 -19l-1 -194l318 318q13 13 27 0z" />
    <glyph glyph-name="partialdiff" unicode="&#x2202;" horiz-adv-x="659" 
d="M295 711q146 0 222 -97t76 -284t-84 -271q-70 -70 -186 -70q-115 0 -186 67t-71 172q0 102 67.5 169t171.5 67q121 0 180 -88h3q-7 129 -56.5 186t-139.5 57q-56 0 -114 -23q-23 -8 -23 15v54q0 14 14 22q59 24 126 24zM324 82q69 0 110.5 40t41.5 106t-41.5 105.5
t-110.5 39.5t-110.5 -39t-41.5 -106t41.5 -106.5t110.5 -39.5z" />
    <glyph glyph-name="uni2206" unicode="&#x2206;" horiz-adv-x="697" 
d="M77 0q-15 0 -23 12l-19 31q-7 11 -2 25l276 618q6 14 23 14h34q17 0 22 -14l276 -618q6 -13 -2 -25l-19 -31q-7 -12 -22 -12h-544zM148 93h401l-199 450h-3z" />
    <glyph glyph-name="product" unicode="&#x220f;" horiz-adv-x="707" 
d="M579 734q19 0 19 -19v-826q0 -19 -19 -19h-67q-19 0 -19 19v751h-280v-751q0 -19 -19 -19h-66q-19 0 -19 19v826q0 19 19 19h451z" />
    <glyph glyph-name="summation" unicode="&#x2211;" horiz-adv-x="555" 
d="M517 660q0 -19 -19 -19h-319l233 -325q9 -14 0 -27l-233 -325h319q19 0 19 -19v-56q0 -19 -19 -19h-422q-19 0 -19 19v61q0 13 7 23l236 330l-236 329q-7 11 -7 24v60q0 19 19 19h422q19 0 19 -19v-56z" />
    <glyph glyph-name="minus" unicode="&#x2212;" 
d="M97 272q-19 0 -19 19v52q0 19 19 19h406q19 0 19 -19v-52q0 -19 -19 -19h-406z" />
    <glyph glyph-name="radical" unicode="&#x221a;" horiz-adv-x="643" 
d="M599 734q22 0 16 -21l-237 -827q-4 -16 -22 -16h-74q-16 0 -22 15l-125 347h-88q-19 0 -19 19v56q0 19 19 19h145q17 0 21 -15l100 -289h3l196 696q4 16 21 16h66z" />
    <glyph glyph-name="infinity" unicode="&#x221e;" horiz-adv-x="757" 
d="M540 522q80 0 129 -52t49 -134t-49 -133.5t-129 -51.5q-98 0 -162 97q-62 -97 -161 -97q-80 0 -129.5 51.5t-49.5 133.5t49.5 134t129.5 52q99 0 161 -97q64 97 162 97zM215 236q38 0 63 25.5t51 74.5q-26 49 -51 74.5t-63 25.5t-61.5 -27.5t-23.5 -72.5t23.5 -72.5
t61.5 -27.5zM542 236q38 0 61.5 27.5t23.5 72.5t-23.5 72.5t-61.5 27.5t-63 -25.5t-51 -74.5q26 -49 51 -74.5t63 -25.5z" />
    <glyph glyph-name="integral" unicode="&#x222b;" horiz-adv-x="411" 
d="M49 -130q-19 0 -19 19v54q0 19 19 19h45q59 0 59 57v580q0 72 33 103.5t108 31.5h68q19 0 19 -19v-54q0 -19 -19 -19h-45q-59 0 -59 -57v-580q0 -72 -33 -103.5t-108 -31.5h-68z" />
    <glyph glyph-name="approxequal" unicode="&#x2248;" 
d="M405 352q-37 0 -105.5 21.5t-104.5 21.5q-47 0 -94 -27q-10 -6 -16.5 -2.5t-6.5 14.5v49q0 14 12 23q49 32 107 32q35 0 104.5 -21.5t102.5 -21.5q49 0 96 26q10 6 16 3t6 -14v-49q0 -14 -13 -24q-49 -31 -104 -31zM405 148q-37 0 -105 22t-105 22q-48 0 -94 -28
q-10 -6 -16.5 -2.5t-6.5 15.5v49q0 14 12 23q51 32 107 32q35 0 104.5 -22t102.5 -22q50 0 96 27q22 14 22 -12v-49q0 -14 -13 -23q-50 -32 -104 -32z" />
    <glyph glyph-name="notequal" unicode="&#x2260;" 
d="M503 374h-137l-54 -116h191q19 0 19 -19v-50q0 -19 -19 -19h-232l-51 -110q-8 -15 -22 -15h-38q-25 0 -15 23l47 102h-95q-19 0 -19 19v50q0 19 19 19h136l54 116h-190q-19 0 -19 19v50q0 19 19 19h231l52 111q8 14 22 14h38q11 0 15.5 -6t-0.5 -16l-48 -103h96
q19 0 19 -19v-50q0 -19 -19 -19z" />
    <glyph glyph-name="lessequal" unicode="&#x2264;" 
d="M500 155l-407 155q-15 7 -15 22v62q0 15 15 22l407 155q22 8 22 -15v-57q0 -15 -15 -22l-309 -113v-2l309 -113q15 -7 15 -22v-57q0 -23 -22 -15zM97 0q-19 0 -19 19v52q0 19 19 19h406q19 0 19 -19v-52q0 -19 -19 -19h-406z" />
    <glyph glyph-name="greaterequal" unicode="&#x2265;" 
d="M100 155q-22 -8 -22 15v57q0 15 15 22l309 113v2l-309 113q-15 7 -15 22v57q0 23 22 15l407 -155q15 -7 15 -22v-62q0 -15 -15 -22zM97 0q-19 0 -19 19v52q0 19 19 19h406q19 0 19 -19v-52q0 -19 -19 -19h-406z" />
    <glyph glyph-name="filledbox" unicode="&#x25a0;" horiz-adv-x="900" 
d="M115 0q-15 0 -15 15v670q0 15 15 15h670q15 0 15 -15v-670q0 -15 -15 -15h-670z" />
    <glyph glyph-name="triagup" unicode="&#x25b2;" horiz-adv-x="900" 
d="M120 0q-19 0 -11 18l331 662q4 8 10 8t10 -8l331 -662q8 -18 -11 -18h-660z" />
    <glyph glyph-name="triagdn" unicode="&#x25bc;" horiz-adv-x="900" 
d="M440 20l-331 662q-8 18 11 18h660q19 0 11 -18l-331 -662q-4 -8 -10 -8t-10 8z" />
    <glyph glyph-name="uni25C6" unicode="&#x25c6;" horiz-adv-x="900" 
d="M438 11l-327 327q-11 11 0 22l327 329q11 11 22 0l329 -329q11 -11 0 -22l-329 -327q-11 -11 -22 0z" />
    <glyph glyph-name="lozenge" unicode="&#x25ca;" horiz-adv-x="647" 
d="M610 363q9 -13 0 -26l-237 -326q-7 -11 -23 -11h-53q-16 0 -23 11l-237 326q-9 13 0 26l237 326q7 11 23 11h53q16 0 23 -11zM324 104l179 246l-179 246h-2l-178 -246l178 -246h2z" />
    <glyph glyph-name="uni25CF" unicode="&#x25cf;" horiz-adv-x="900" 
d="M450 0q-145 0 -247.5 102.5t-102.5 247.5t102.5 247.5t247.5 102.5t247.5 -102.5t102.5 -247.5t-102.5 -247.5t-247.5 -102.5z" />
    <glyph glyph-name="uni2610" unicode="&#x2610;" horiz-adv-x="900" 
d="M119 0q-19 0 -19 19v662q0 19 19 19h662q19 0 19 -19v-662q0 -19 -19 -19h-662zM177 72h546v556h-546v-556z" />
    <glyph glyph-name="uni2611" unicode="&#x2611;" horiz-adv-x="900" 
d="M781 700q19 0 19 -19v-662q0 -19 -19 -19h-662q-19 0 -19 19v662q0 19 19 19h662zM723 72v556h-546v-556h546zM271 222q-15 10 -6 26l28 50q11 18 26 7l74 -42l164 285q10 17 26 7l45 -26q17 -11 8 -26l-203 -352q-10 -16 -27 -6z" />
    <glyph glyph-name="uni2612" unicode="&#x2612;" horiz-adv-x="900" 
d="M119 0q-19 0 -19 19v662q0 19 19 19h662q19 0 19 -19v-662q0 -19 -19 -19h-662zM177 72h546v556h-546v-556zM288 154l-35 35q-13 13 0 26l135 135l-135 135q-13 13 0 26l35 35q13 13 27 0l134 -135l135 135q13 13 27 0l34 -35q15 -13 0 -26l-135 -135l135 -135
q15 -13 0 -26l-34 -35q-14 -13 -27 0l-135 135l-134 -135q-14 -13 -27 0z" />
    <glyph glyph-name="heart" unicode="&#x2665;" horiz-adv-x="900" 
d="M439 58q-35 33 -85.5 68.5t-87 60.5t-71 56.5t-53 72.5t-18.5 93q0 93 53.5 145t123.5 52q58 0 100.5 -36t47.5 -100h2q5 64 47.5 100t100.5 36q70 0 123.5 -52t53.5 -145q0 -52 -18.5 -93t-53 -72.5t-71 -56.5t-87 -60.5t-85.5 -68.5q-11 -9 -22 0z" />
    <glyph glyph-name="uni2B51" unicode="&#x2b51;" horiz-adv-x="900" 
d="M243 15q-9 -7 -13.5 -3t-1.5 15l79 242l-204 148q-9 7 -7 12.5t13 5.5h253l77 240q2 7 6 9.5t8 0t6 -9.5l77 -241h255q11 0 13 -5.5t-7 -12.5l-206 -149l78 -240q3 -10 -2 -14t-13 2l-205 150z" />
    <glyph glyph-name="currency_acutecomb" horiz-adv-x="634" 
d="M54 304q0 19 19 19h69q19 0 19 -19v-57q0 -158 142 -158q145 0 145 158v355h-275q-19 0 -19 19v60q0 19 19 19h362q19 0 19 -19v-442q0 -119 -65 -184.5t-185 -65.5q-118 0 -184 64t-66 182v69zM295 795l79 116q8 13 22 13h78q12 0 14 -4.5t2 -6.5q0 -5 -6 -12l-94 -118
q-7 -11 -22 -11h-61q-11 0 -13.5 4.5t-2.5 7.5q0 5 4 11z" />
    <glyph glyph-name="G.ss01" horiz-adv-x="815" 
d="M158 608q101 103 259 103q118 0 207 -60t117 -159q1 -4 1 -7q0 -4 -3.5 -9t-13.5 -5h-76q-16 0 -22 16q-20 57 -77 90.5t-133 33.5q-114 0 -183 -73t-69 -188q0 -118 70 -189.5t180 -71.5q97 0 162.5 56t74.5 150h-200q-19 0 -19 19v54q0 19 19 19h276q19 0 19 -19v-349
q0 -19 -19 -19h-57q-19 0 -19 19v86h-3q-82 -116 -243 -116q-153 0 -251.5 103t-98.5 257q0 155 102 259z" />
    <glyph glyph-name="Gbreve.ss01" horiz-adv-x="815" 
d="M158 608q101 103 259 103q118 0 207 -60t117 -159q1 -4 1 -7q0 -4 -3.5 -9t-13.5 -5h-76q-16 0 -22 16q-20 57 -77 90.5t-133 33.5q-114 0 -183 -73t-69 -188q0 -118 70 -189.5t180 -71.5q97 0 162.5 56t74.5 150h-200q-19 0 -19 19v54q0 19 19 19h276q19 0 19 -19v-349
q0 -19 -19 -19h-57q-19 0 -19 19v86h-3q-82 -116 -243 -116q-153 0 -251.5 103t-98.5 257q0 155 102 259zM261 896q0 20 19 20h48q17 0 20 -18q9 -59 69 -59t69 59q3 18 20 18h48q19 0 19 -20q0 -53 -42 -89q-43 -37 -114 -37t-113.5 36.5t-42.5 89.5z" />
    <glyph glyph-name="Gcaron.ss01" horiz-adv-x="815" 
d="M158 608q101 103 259 103q118 0 207 -60t117 -159q1 -4 1 -7q0 -4 -3.5 -9t-13.5 -5h-76q-16 0 -22 16q-20 57 -77 90.5t-133 33.5q-114 0 -183 -73t-69 -188q0 -118 70 -189.5t180 -71.5q97 0 162.5 56t74.5 150h-200q-19 0 -19 19v54q0 19 19 19h276q19 0 19 -19v-349
q0 -19 -19 -19h-57q-19 0 -19 19v86h-3q-82 -116 -243 -116q-153 0 -251.5 103t-98.5 257q0 155 102 259zM251 916q3 7 15 7h57q15 0 24 -10l69 -81h2l69 81q9 10 23 10h58q12 0 14 -4.5t2 -6.5q0 -5 -6 -12l-103 -118q-11 -11 -24 -11h-68q-13 0 -24 11l-103 118
q-6 7 -6 12q0 2 1 4z" />
    <glyph glyph-name="Gcircumflex.ss01" horiz-adv-x="815" 
d="M158 608q101 103 259 103q118 0 207 -60t117 -159q1 -4 1 -7q0 -4 -3.5 -9t-13.5 -5h-76q-16 0 -22 16q-20 57 -77 90.5t-133 33.5q-114 0 -183 -73t-69 -188q0 -118 70 -189.5t180 -71.5q97 0 162.5 56t74.5 150h-200q-19 0 -19 19v54q0 19 19 19h276q19 0 19 -19v-349
q0 -19 -19 -19h-57q-19 0 -19 19v86h-3q-82 -116 -243 -116q-153 0 -251.5 103t-98.5 257q0 155 102 259zM256 795l103 118q10 10 24 10h68q14 0 24 -10l103 -118q6 -7 6 -12q0 -2 -2 -7t-14 -5h-58q-15 0 -23 11l-69 80h-2l-69 -80q-8 -11 -24 -11h-57q-12 0 -14 5t-2 7
q0 5 6 12z" />
    <glyph glyph-name="uni0122.ss01" horiz-adv-x="815" 
d="M158 608q101 103 259 103q118 0 207 -60t117 -159q1 -4 1 -7q0 -4 -3.5 -9t-13.5 -5h-76q-16 0 -22 16q-20 57 -77 90.5t-133 33.5q-114 0 -183 -73t-69 -188q0 -118 70 -189.5t180 -71.5q97 0 162.5 56t74.5 150h-200q-19 0 -19 19v54q0 19 19 19h276q19 0 19 -19v-349
q0 -19 -19 -19h-57q-19 0 -19 19v86h-3q-82 -116 -243 -116q-153 0 -251.5 103t-98.5 257q0 155 102 259zM344 -235l15 134q1 18 20 18h65q17 0 17 -14q0 -3 -1 -7l-35 -134q-5 -17 -21 -17h-43q-17 0 -17 15v5z" />
    <glyph glyph-name="Gdotaccent.ss01" horiz-adv-x="815" 
d="M158 608q101 103 259 103q118 0 207 -60t117 -159q1 -4 1 -7q0 -4 -3.5 -9t-13.5 -5h-76q-16 0 -22 16q-20 57 -77 90.5t-133 33.5q-114 0 -183 -73t-69 -188q0 -118 70 -189.5t180 -71.5q97 0 162.5 56t74.5 150h-200q-19 0 -19 19v54q0 19 19 19h276q19 0 19 -19v-349
q0 -19 -19 -19h-57q-19 0 -19 19v86h-3q-82 -116 -243 -116q-153 0 -251.5 103t-98.5 257q0 155 102 259zM368 900q20 19 49 19t49 -19.5t20 -48.5t-20 -48q-20 -20 -49 -20t-49 19.5t-20 48.5t20 49z" />
    <glyph glyph-name="uni1E20.ss01" horiz-adv-x="815" 
d="M158 608q101 103 259 103q118 0 207 -60t117 -159q1 -4 1 -7q0 -4 -3.5 -9t-13.5 -5h-76q-16 0 -22 16q-20 57 -77 90.5t-133 33.5q-114 0 -183 -73t-69 -188q0 -118 70 -189.5t180 -71.5q97 0 162.5 56t74.5 150h-200q-19 0 -19 19v54q0 19 19 19h276q19 0 19 -19v-349
q0 -19 -19 -19h-57q-19 0 -19 19v86h-3q-82 -116 -243 -116q-153 0 -251.5 103t-98.5 257q0 155 102 259zM267 857q0 19 19 19h262q19 0 19 -19v-43q0 -19 -19 -19h-262q-19 0 -19 19v43z" />
    <glyph glyph-name="i.loclTRK" horiz-adv-x="247" 
d="M74 450q0 19 19 19h62q19 0 19 -19v-431q0 -19 -19 -19h-62q-19 0 -19 19v431zM55 620q0 30 19.5 49t49.5 19t49.5 -19t19.5 -49q0 -29 -20 -48q-20 -20 -49 -20t-49 19.5t-20 48.5z" />
    <glyph glyph-name="j_acutecomb" horiz-adv-x="247" 
d="M-38 -133q18 -2 26 -2q46 0 66 22t20 77v486q0 19 19 19h62q19 0 19 -19v-490q0 -97 -40.5 -142t-122.5 -45q-30 0 -53 6q-17 3 -17 20v52q0 16 16 16h5zM61 563l62 116q8 14 23 14h68q11 0 13.5 -5t2.5 -8q0 -5 -3 -10l-71 -117q-8 -12 -23 -12h-59q-11 0 -14 4.5
t-3 7.5q0 5 4 10z" />
    <glyph glyph-name="y.ss02" horiz-adv-x="533" 
d="M40 469h66q16 0 22 -14l137 -334h3l137 334q6 14 22 14h66q17 0 17 -12q0 -4 -2 -10l-283 -649q-6 -14 -23 -14h-67q-17 0 -17 11q0 5 3 11l93 208l-189 433q-2 6 -2 10q0 12 17 12z" />
    <glyph glyph-name="yacute.ss02" horiz-adv-x="533" 
d="M40 469h66q16 0 22 -14l137 -334h3l137 334q6 14 22 14h66q17 0 17 -12q0 -4 -2 -10l-283 -649q-6 -14 -23 -14h-67q-17 0 -17 11q0 5 3 11l93 208l-189 433q-2 6 -2 10q0 12 17 12zM201 564l79 116q8 13 22 13h78q12 0 14 -4.5t2 -6.5q0 -5 -6 -12l-94 -118
q-7 -11 -22 -11h-61q-11 0 -13.5 4.5t-2.5 7.5q0 5 4 11z" />
    <glyph glyph-name="ycircumflex.ss02" horiz-adv-x="533" 
d="M40 469h66q16 0 22 -14l137 -334h3l137 334q6 14 22 14h66q17 0 17 -12q0 -4 -2 -10l-283 -649q-6 -14 -23 -14h-67q-17 0 -17 11q0 5 3 11l93 208l-189 433q-2 6 -2 10q0 12 17 12zM106 564l103 118q11 11 24 11h68q13 0 24 -11l103 -118q6 -7 6 -12q0 -2 -2 -6.5
t-14 -4.5h-57q-15 0 -24 10l-69 80h-2l-69 -80q-9 -10 -23 -10h-58q-12 0 -14 4.5t-2 6.5q0 5 6 12z" />
    <glyph glyph-name="ydieresis.ss02" horiz-adv-x="533" 
d="M40 469h66q16 0 22 -14l137 -334h3l137 334q6 14 22 14h66q17 0 17 -12q0 -4 -2 -10l-283 -649q-6 -14 -23 -14h-67q-17 0 -17 11q0 5 3 11l93 208l-189 433q-2 6 -2 10q0 12 17 12zM113 667q18 18 47 18q28 0 46.5 -18.5t18.5 -47.5t-18.5 -48t-46.5 -19q-29 0 -47.5 19
t-18.5 48t19 48zM309 619q0 29 18.5 47.5t46.5 18.5q29 0 47.5 -18.5t18.5 -47.5t-18.5 -48t-47.5 -19q-28 0 -46.5 19t-18.5 48z" />
    <glyph glyph-name="ygrave.ss02" horiz-adv-x="533" 
d="M40 469h66q16 0 22 -14l137 -334h3l137 334q6 14 22 14h66q17 0 17 -12q0 -4 -2 -10l-283 -649q-6 -14 -23 -14h-67q-17 0 -17 11q0 5 3 11l93 208l-189 433q-2 6 -2 10q0 12 17 12zM133 686q3 7 15 7h77q13 0 23 -13l79 -116q4 -6 4 -11q0 -3 -2.5 -7.5t-14.5 -4.5h-60
q-15 0 -23 11l-94 118q-5 6 -5 12q0 2 1 4z" />
    <glyph glyph-name="f_f.dlig" horiz-adv-x="730" 
d="M705 703q16 -4 16 -21v-47q0 -22 -21 -17q-20 4 -44 4q-55 0 -78 -25.5t-23 -89.5v-38h140q19 0 19 -19v-47q0 -19 -19 -19h-140v-365q0 -19 -19 -19h-62q-19 0 -19 19v365h-231v-365q0 -19 -19 -19h-62q-19 0 -19 19v365h-85q-19 0 -19 19v47q0 19 19 19h85v38
q0 205 182 205q38 0 68 -9q15 -4 15 -21v-47q0 -22 -20 -17q-21 4 -44 4q-55 0 -78 -25.5t-23 -89.5v-38h231v38q0 205 182 205q38 0 68 -9z" />
    <glyph glyph-name="t_t.dlig" horiz-adv-x="788" 
d="M35 469h87v112q0 19 19 19h62q19 0 19 -19v-112h251v112q0 19 19 19h62q19 0 19 -19v-112h159q19 0 19 -19v-47q0 -19 -19 -19h-159v-209q0 -52 22 -73.5t71 -21.5q36 0 68 11q7 3 11 3q11 0 11 -16v-50q0 -15 -14 -22q-41 -17 -95 -17q-174 0 -174 178v217h-251v-209
q0 -52 22 -73.5t71 -21.5q38 0 68 11q7 3 11 3q11 0 11 -16v-50q0 -15 -14 -22q-41 -17 -95 -17q-174 0 -174 178v217h-87q-19 0 -19 19v47q0 19 19 19z" />
    <glyph glyph-name="zero.lf" horiz-adv-x="674" 
d="M337 -11q-128 0 -204.5 96.5t-76.5 264.5t76.5 264.5t204.5 96.5t204.5 -96.5t76.5 -264.5t-76.5 -264.5t-204.5 -96.5zM337 85q84 0 129.5 67t45.5 198t-45.5 198t-129.5 67t-129.5 -67t-45.5 -198t45.5 -198t129.5 -67z" />
    <glyph glyph-name="one.lf" horiz-adv-x="393" 
d="M277 700q19 0 19 -19v-662q0 -19 -19 -19h-65q-19 0 -19 19v567l-128 -73q-10 -6 -16.5 -2t-6.5 15v63q0 16 13 22l142 82q11 7 24 7h56z" />
    <glyph glyph-name="two.lf" horiz-adv-x="577" 
d="M510 96q19 0 19 -19v-58q0 -19 -19 -19h-440q-19 0 -19 19v32q0 87 40.5 149t137.5 115l73 40q65 36 93.5 72.5t28.5 79.5q0 49 -33.5 78.5t-90.5 29.5q-59 0 -95.5 -32.5t-43.5 -90.5q-2 -19 -19 -19h-69q-21 0 -19 20q8 101 73.5 159.5t170.5 58.5q104 0 167.5 -56.5
t63.5 -148.5q0 -67 -38.5 -120t-124.5 -100l-73 -41q-71 -40 -100.5 -73t-32.5 -76h350z" />
    <glyph glyph-name="three.lf" horiz-adv-x="594" 
d="M299 -11q-109 0 -175.5 55.5t-74.5 153.5q-1 20 19 20h68q17 0 20 -18q8 -55 45.5 -85t98.5 -30q64 0 102.5 31.5t38.5 81.5q0 51 -39.5 81t-111.5 30h-28q-19 0 -19 19v56q0 19 19 19h24q66 0 104 30t38 79q0 47 -34.5 75t-93.5 28t-94 -30t-42 -86q-2 -18 -19 -18h-68
q-21 0 -19 20q7 98 72 154t170 56q106 0 170 -54t64 -139q0 -58 -31.5 -100t-91.5 -59v-2q65 -13 101 -57t36 -107q0 -88 -68 -146t-181 -58z" />
    <glyph glyph-name="four.lf" horiz-adv-x="614" 
d="M566 243q19 0 19 -19v-54q0 -19 -19 -19h-77v-132q0 -19 -19 -19h-62q-19 0 -19 19v132h-341q-19 0 -19 19v52q0 13 7 24l329 443q8 11 23 11h82q19 0 19 -19v-438h77zM143 243h246v329h-2z" />
    <glyph glyph-name="five.lf" horiz-adv-x="601" 
d="M326 466q102 0 168 -63.5t66 -167.5q0 -108 -71.5 -177t-185.5 -69q-101 0 -170 53.5t-80 141.5q-2 20 18 20h68q15 0 20 -18q10 -45 49.5 -73.5t94.5 -28.5q67 0 109.5 43t42.5 111q0 63 -38 101t-101 38q-85 0 -136 -59q-8 -11 -23 -11h-75q-20 0 -17 20l46 355
q1 18 20 18h370q19 0 19 -19v-57q0 -19 -19 -19h-304l-23 -188q63 49 152 49z" />
    <glyph glyph-name="six.lf" horiz-adv-x="624" 
d="M344 464q103 0 171 -67t68 -169q0 -105 -71.5 -172t-186.5 -67q-114 0 -186 70q-83 85 -83 271q0 183 74 282t208 99q89 0 148.5 -42.5t76.5 -116.5q5 -21 -17 -21h-67q-16 0 -21 16q-24 70 -119 70q-164 0 -178 -241h2q60 88 181 88zM325 82q69 0 110.5 39.5t41.5 106.5
q0 66 -41.5 105.5t-110.5 39.5t-110.5 -39.5t-41.5 -105.5t41.5 -106t110.5 -40z" />
    <glyph glyph-name="seven.lf" horiz-adv-x="538" 
d="M487 700q19 0 19 -19v-56q0 -14 -5 -24l-275 -587q-7 -14 -22 -14h-68q-23 0 -15 23l274 580h-344q-19 0 -19 19v59q0 19 19 19h436z" />
    <glyph glyph-name="eight.lf" horiz-adv-x="630" 
d="M315 -11q-121 0 -193 57.5t-72 146.5q0 59 33.5 104.5t97.5 67.5v2q-54 20 -82 61.5t-28 94.5q0 82 64.5 135t179.5 53t179.5 -53t64.5 -135q0 -53 -28 -94.5t-82 -61.5v-2q64 -22 97.5 -67.5t33.5 -104.5q0 -89 -72 -146.5t-193 -57.5zM315 403q66 0 103 30t37 79
q0 48 -37 78t-103 30q-67 0 -103.5 -29.5t-36.5 -78.5t36.5 -79t103.5 -30zM315 82q74 0 116 33t42 86t-42 85t-116 32t-116.5 -32t-42.5 -85t42.5 -86t116.5 -33z" />
    <glyph glyph-name="nine.lf" horiz-adv-x="624" 
d="M486 638q82 -84 82 -270q0 -180 -73.5 -279.5t-208.5 -99.5q-90 0 -149.5 42.5t-76.5 116.5q-2 9 3 15t14 6h68q15 0 21 -16q22 -70 120 -70q165 0 178 244h-2q-27 -41 -75.5 -64t-105.5 -23q-103 0 -169 66t-66 167q0 104 71 171t185 67q117 0 184 -73zM299 330
q68 0 110.5 40t42.5 104t-41.5 104t-108.5 40t-109 -40.5t-42 -105.5q0 -64 40.5 -103t107.5 -39z" />
    <glyph glyph-name="zero.tf" horiz-adv-x="650" 
d="M325 -11q-128 0 -204.5 96.5t-76.5 264.5t76.5 264.5t204.5 96.5t204.5 -96.5t76.5 -264.5t-76.5 -264.5t-204.5 -96.5zM325 85q84 0 129.5 67t45.5 198t-45.5 198t-129.5 67t-129.5 -67t-45.5 -198t45.5 -198t129.5 -67z" />
    <glyph glyph-name="one.tf" horiz-adv-x="650" 
d="M397 700q19 0 19 -19v-662q0 -19 -19 -19h-65q-19 0 -19 19v567l-128 -73q-10 -6 -16.5 -2t-6.5 15v63q0 15 13 22l143 82q10 7 23 7h56z" />
    <glyph glyph-name="two.tf" horiz-adv-x="650" 
d="M550 96q19 0 19 -19v-58q0 -19 -19 -19h-441q-19 0 -19 19v32q0 87 40.5 148.5t137.5 115.5l73 40q65 36 93.5 72.5t28.5 79.5q0 49 -33 78.5t-90 29.5q-60 0 -96.5 -32.5t-43.5 -90.5q-2 -19 -19 -19h-69q-19 0 -19 20q8 101 74 159.5t170 58.5t167.5 -56.5t63.5 -148.5
q0 -67 -38 -120t-124 -100l-74 -41q-71 -40 -100.5 -73t-32.5 -76h351z" />
    <glyph glyph-name="three.tf" horiz-adv-x="650" 
d="M330 -11q-109 0 -175.5 55.5t-74.5 153.5q-1 20 19 20h68q17 0 20 -18q8 -55 45.5 -85t98.5 -30q64 0 102.5 31.5t38.5 81.5q0 51 -39.5 81t-111.5 30h-27q-19 0 -19 19v56q0 19 19 19h24q65 0 103 30t38 79q0 47 -34.5 75t-93.5 28t-94 -30t-42 -86q-2 -18 -19 -18h-68
q-21 0 -19 20q8 98 72.5 154t169.5 56q106 0 170 -54t64 -139q0 -58 -31.5 -100t-90.5 -59v-2q64 -13 100 -57t36 -107q0 -88 -67.5 -146t-181.5 -58z" />
    <glyph glyph-name="four.tf" horiz-adv-x="650" 
d="M582 243q19 0 19 -19v-54q0 -19 -19 -19h-78v-132q0 -19 -19 -19h-61q-19 0 -19 19v132h-342q-19 0 -19 19v52q0 13 8 24l329 443q7 11 23 11h81q19 0 19 -19v-438h78zM158 243h247v329h-2z" />
    <glyph glyph-name="five.tf" horiz-adv-x="650" 
d="M354 466q102 0 168 -63.5t66 -167.5q0 -108 -71.5 -177t-185.5 -69q-101 0 -170 53.5t-80 141.5q-2 20 18 20h68q15 0 20 -18q10 -45 49.5 -73.5t94.5 -28.5q67 0 109.5 43t42.5 111q0 63 -38 101t-101 38q-85 0 -136 -59q-8 -11 -23 -11h-75q-20 0 -17 20l46 355
q1 18 20 18h370q19 0 19 -19v-57q0 -19 -19 -19h-304l-23 -188q63 49 152 49z" />
    <glyph glyph-name="six.tf" horiz-adv-x="650" 
d="M353 464q104 0 172 -67t68 -169q0 -105 -71.5 -172t-186.5 -67q-116 0 -186 70q-84 84 -84 271q0 183 74.5 282t208.5 99q89 0 148.5 -42.5t76.5 -116.5q2 -9 -3 -15t-14 -6h-68q-15 0 -21 16q-22 70 -119 70q-164 0 -178 -241h3q59 88 180 88zM335 82q69 0 110.5 40
t41.5 106t-42 105.5t-110 39.5q-69 0 -110.5 -39t-41.5 -106t41.5 -106.5t110.5 -39.5z" />
    <glyph glyph-name="seven.tf" horiz-adv-x="650" 
d="M550 700q19 0 19 -19v-56q0 -11 -5 -24l-275 -587q-7 -14 -22 -14h-69q-11 0 -14.5 6t0.5 17l273 580h-343q-19 0 -19 19v59q0 19 19 19h436z" />
    <glyph glyph-name="eight.tf" horiz-adv-x="650" 
d="M325 -11q-121 0 -193 57.5t-72 146.5q0 59 33.5 104.5t97.5 67.5v2q-54 20 -82 61.5t-28 94.5q0 82 64.5 135t179.5 53t179.5 -53t64.5 -135q0 -53 -28 -94.5t-82 -61.5v-2q64 -22 97.5 -67.5t33.5 -104.5q0 -89 -72 -146.5t-193 -57.5zM325 403q67 0 103.5 30t36.5 79
t-36.5 78.5t-103.5 29.5t-103.5 -29.5t-36.5 -78.5t36.5 -79t103.5 -30zM325 82q74 0 116 33t42 86t-42 85t-116 32t-116 -32t-42 -85t42 -86t116 -33z" />
    <glyph glyph-name="nine.tf" horiz-adv-x="650" 
d="M507 638q82 -85 82 -270q0 -180 -74 -279.5t-209 -99.5q-90 0 -149.5 42.5t-76.5 116.5q-3 21 17 21h68q15 0 21 -16q22 -70 120 -70q166 0 179 244h-3q-27 -41 -75.5 -64t-105.5 -23q-102 0 -168.5 66t-66.5 167q0 104 71 171t185 67q116 0 185 -73zM319 330
q68 0 110.5 40t42.5 104t-41.5 104t-108.5 40t-109 -40.5t-42 -105.5q0 -64 40.5 -103t107.5 -39z" />
    <glyph glyph-name="zero.subs" horiz-adv-x="372" 
d="M186 -61q-72 0 -113 50.5t-41 142.5q0 91 41 141.5t113 50.5t113 -50.5t41 -141.5q0 -92 -41 -142.5t-113 -50.5zM186 10q76 0 76 122q0 60 -20.5 90t-55.5 30q-75 0 -75 -120q0 -122 75 -122z" />
    <glyph glyph-name="one.subs" horiz-adv-x="234" 
d="M166 317q19 0 19 -19v-333q0 -19 -19 -19h-40q-19 0 -19 19v271l-58 -34q-9 -6 -16 -2t-7 16v36q0 14 13 23l63 36q12 6 24 6h40z" />
    <glyph glyph-name="two.subs" horiz-adv-x="321" 
d="M272 15q19 0 19 -19v-31q0 -19 -19 -19h-223q-19 0 -19 19v11q0 62 18 95t76 61l45 22q49 24 49 56q0 20 -13.5 32t-37.5 12q-46 0 -56 -44q-5 -17 -20 -17h-41q-20 0 -19 19q6 52 41 82t94 30q60 0 94.5 -30t34.5 -83q0 -39 -21.5 -65t-66.5 -49l-45 -21
q-27 -13 -39 -26t-16 -35h165z" />
    <glyph glyph-name="three.subs" horiz-adv-x="328" 
d="M234 135q67 -22 67 -88q0 -49 -36 -78.5t-101 -29.5q-59 0 -94 29q-34 28 -40 73q-3 20 18 20h40q14 0 21 -17q11 -35 57 -35q26 0 41 13t15 35q0 43 -58 43h-13q-19 0 -19 19v29q0 19 19 19h11q26 0 41 12t15 33q0 41 -52 41q-43 0 -55 -35q-5 -18 -20 -18h-40
q-21 0 -18 20q7 43 38 73q36 31 94 31q61 0 95.5 -28t34.5 -74q0 -63 -61 -87z" />
    <glyph glyph-name="four.subs" horiz-adv-x="343" 
d="M302 85q19 0 19 -19v-28q0 -19 -19 -19h-24v-54q0 -19 -19 -19h-34q-19 0 -19 19v54h-164q-19 0 -19 19v30q0 13 7 24l157 214q7 11 22 11h50q19 0 19 -19v-213h24zM103 85h103v141z" />
    <glyph glyph-name="five.subs" horiz-adv-x="328" 
d="M176 191q57 0 92.5 -34t35.5 -89q0 -58 -38.5 -93.5t-101.5 -35.5q-51 0 -89 27q-35 27 -44 69q-3 20 18 20h38q15 0 21 -15q14 -32 56 -32q30 0 46.5 17t16.5 44q0 28 -16.5 44t-44.5 16q-30 0 -49 -19q-13 -10 -24 -10h-42q-20 0 -17 20l23 179q3 18 20 18h186
q19 0 19 -19v-30q0 -19 -19 -19h-143l-10 -72q31 14 66 14z" />
    <glyph glyph-name="six.subs" horiz-adv-x="343" 
d="M192 188q55 0 90.5 -34t35.5 -88q0 -57 -38 -92t-101 -35q-61 0 -101 37q-46 46 -46 149q0 98 39.5 148.5t112.5 50.5q101 0 124 -87q6 -21 -17 -21h-37q-14 0 -22 15q-12 26 -50 26q-66 0 -74 -99q33 30 84 30zM178 4q28 0 45.5 17t17.5 45t-17 44.5t-45 16.5t-46 -17
t-18 -44t17.5 -44.5t45.5 -17.5z" />
    <glyph glyph-name="seven.subs" horiz-adv-x="290" 
d="M250 317q19 0 19 -19v-31q0 -14 -5 -24l-129 -283q-6 -14 -22 -14h-42q-23 0 -14 22l128 279h-145q-19 0 -19 19v32q0 19 19 19h210z" />
    <glyph glyph-name="eight.subs" horiz-adv-x="342" 
d="M171 -61q-66 0 -104 29.5t-38 78.5q0 66 65 93q-55 26 -55 83q0 45 35 73t97 28t97 -28t35 -73q0 -56 -55 -83q65 -27 65 -93q0 -49 -38 -78.5t-104 -29.5zM171 168q56 0 56 45q0 21 -14.5 33.5t-41.5 12.5q-56 0 -56 -46q0 -45 56 -45zM171 4q64 0 64 50q0 49 -64 49
t-64 -49q0 -23 16.5 -36.5t47.5 -13.5z" />
    <glyph glyph-name="nine.subs" horiz-adv-x="345" 
d="M267 286q46 -45 46 -147q0 -99 -39 -149.5t-113 -50.5q-50 0 -83 24q-33 25 -43 63q-2 10 3 15.5t15 5.5h39q13 0 21 -15q15 -27 50 -27q65 0 73 97q-32 -28 -83 -28q-55 0 -90.5 34t-35.5 89q0 56 38 91.5t101 35.5q62 0 101 -38zM166 135q28 0 46 17.5t18 43.5
q0 28 -17.5 45.5t-45.5 17.5t-45.5 -17t-17.5 -45t17 -45t45 -17z" />
    <glyph glyph-name="zero.dnom" horiz-adv-x="372" 
d="M186 -11q-72 0 -113 50.5t-41 142.5q0 91 41 141.5t113 50.5t113 -50.5t41 -141.5q0 -92 -41 -142.5t-113 -50.5zM186 60q76 0 76 122q0 60 -20.5 90t-55.5 30q-75 0 -75 -120q0 -122 75 -122z" />
    <glyph glyph-name="one.dnom" horiz-adv-x="234" 
d="M166 367q19 0 19 -19v-333q0 -19 -19 -19h-40q-19 0 -19 19v271l-58 -34q-9 -6 -16 -2t-7 16v36q0 14 13 23l63 36q12 6 24 6h40z" />
    <glyph glyph-name="two.dnom" horiz-adv-x="321" 
d="M272 65q19 0 19 -19v-31q0 -19 -19 -19h-223q-19 0 -19 19v11q0 62 18 95t76 61l45 22q49 24 49 56q0 20 -13.5 32t-37.5 12q-46 0 -56 -44q-5 -17 -20 -17h-41q-20 0 -19 19q6 52 41 82t94 30q60 0 94.5 -30t34.5 -83q0 -39 -21.5 -65t-66.5 -49l-45 -21
q-27 -13 -39 -26t-16 -35h165z" />
    <glyph glyph-name="three.dnom" horiz-adv-x="328" 
d="M234 185q67 -22 67 -88q0 -49 -36 -78.5t-101 -29.5q-59 0 -94 29q-34 28 -40 73q-3 20 18 20h40q14 0 21 -17q11 -35 57 -35q26 0 41 13t15 35q0 43 -58 43h-13q-19 0 -19 19v29q0 19 19 19h11q26 0 41 12t15 33q0 41 -52 41q-43 0 -55 -35q-5 -18 -20 -18h-40
q-21 0 -18 20q7 43 38 73q36 31 94 31q61 0 95.5 -28t34.5 -74q0 -63 -61 -87z" />
    <glyph glyph-name="four.dnom" horiz-adv-x="343" 
d="M302 135q19 0 19 -19v-28q0 -19 -19 -19h-24v-54q0 -19 -19 -19h-34q-19 0 -19 19v54h-164q-19 0 -19 19v30q0 13 7 24l157 214q7 11 22 11h50q19 0 19 -19v-213h24zM103 135h103v141z" />
    <glyph glyph-name="five.dnom" horiz-adv-x="328" 
d="M176 241q57 0 92.5 -34t35.5 -89q0 -58 -38.5 -93.5t-101.5 -35.5q-51 0 -89 27q-35 27 -44 69q-3 20 18 20h38q15 0 21 -15q14 -32 56 -32q30 0 46.5 17t16.5 44q0 28 -16.5 44t-44.5 16q-30 0 -49 -19q-13 -10 -24 -10h-42q-20 0 -17 20l23 179q3 18 20 18h186
q19 0 19 -19v-30q0 -19 -19 -19h-143l-10 -72q31 14 66 14z" />
    <glyph glyph-name="six.dnom" horiz-adv-x="343" 
d="M192 238q55 0 90.5 -34t35.5 -88q0 -57 -38 -92t-101 -35q-61 0 -101 37q-46 46 -46 149q0 98 39.5 148.5t112.5 50.5q101 0 124 -87q6 -21 -17 -21h-37q-14 0 -22 15q-12 26 -50 26q-66 0 -74 -99q33 30 84 30zM178 54q28 0 45.5 17t17.5 45t-17 44.5t-45 16.5t-46 -17
t-18 -44t17.5 -44.5t45.5 -17.5z" />
    <glyph glyph-name="seven.dnom" horiz-adv-x="290" 
d="M250 367q19 0 19 -19v-31q0 -14 -5 -24l-129 -283q-6 -14 -22 -14h-42q-23 0 -14 22l128 279h-145q-19 0 -19 19v32q0 19 19 19h210z" />
    <glyph glyph-name="eight.dnom" horiz-adv-x="342" 
d="M171 -11q-66 0 -104 29.5t-38 78.5q0 66 65 93q-55 26 -55 83q0 45 35 73t97 28t97 -28t35 -73q0 -56 -55 -83q65 -27 65 -93q0 -49 -38 -78.5t-104 -29.5zM171 218q56 0 56 45q0 21 -14.5 33.5t-41.5 12.5q-56 0 -56 -46q0 -45 56 -45zM171 54q64 0 64 50q0 49 -64 49
t-64 -49q0 -23 16.5 -36.5t47.5 -13.5z" />
    <glyph glyph-name="nine.dnom" horiz-adv-x="345" 
d="M267 336q46 -45 46 -147q0 -99 -39 -149.5t-113 -50.5q-50 0 -83 24q-33 25 -43 63q-2 10 3 15.5t15 5.5h39q13 0 21 -15q15 -27 50 -27q65 0 73 97q-32 -28 -83 -28q-55 0 -90.5 34t-35.5 89q0 56 38 91.5t101 35.5q62 0 101 -38zM166 185q28 0 46 17.5t18 43.5
q0 28 -17.5 45.5t-45.5 17.5t-45.5 -17t-17.5 -45t17 -45t45 -17z" />
    <glyph glyph-name="zero.numr" horiz-adv-x="372" 
d="M186 326q-72 0 -113 50.5t-41 142.5q0 91 41 141.5t113 50.5t113 -50.5t41 -141.5q0 -92 -41 -142.5t-113 -50.5zM186 397q76 0 76 122q0 60 -20.5 90t-55.5 30q-75 0 -75 -120q0 -122 75 -122z" />
    <glyph glyph-name="one.numr" horiz-adv-x="234" 
d="M166 704q19 0 19 -19v-333q0 -19 -19 -19h-40q-19 0 -19 19v271l-58 -34q-9 -6 -16 -2t-7 16v36q0 14 13 23l63 36q12 6 24 6h40z" />
    <glyph glyph-name="two.numr" horiz-adv-x="321" 
d="M272 402q19 0 19 -19v-31q0 -19 -19 -19h-223q-19 0 -19 19v11q0 62 18 95t76 61l45 22q49 25 49 56q0 20 -13.5 32t-37.5 12q-46 0 -56 -44q-5 -17 -20 -17h-41q-20 0 -19 19q6 52 41 82t94 30q60 0 94.5 -30t34.5 -83q0 -39 -21.5 -65t-66.5 -49l-45 -21
q-28 -13 -39.5 -26t-15.5 -35h165z" />
    <glyph glyph-name="three.numr" horiz-adv-x="328" 
d="M234 522q67 -22 67 -88q0 -49 -36 -78.5t-101 -29.5q-59 0 -94 29q-34 28 -40 73q-3 20 18 20h40q14 0 21 -17q11 -35 57 -35q26 0 41 13t15 35q0 43 -58 43h-13q-19 0 -19 19v29q0 19 19 19h11q26 0 41 12t15 33q0 41 -52 41q-43 0 -55 -35q-5 -18 -20 -18h-40
q-21 0 -18 20q7 43 38 73q36 31 94 31q61 0 95.5 -28t34.5 -74q0 -63 -61 -87z" />
    <glyph glyph-name="four.numr" horiz-adv-x="343" 
d="M302 472q19 0 19 -19v-28q0 -19 -19 -19h-24v-54q0 -19 -19 -19h-34q-19 0 -19 19v54h-164q-19 0 -19 19v30q0 13 7 24l157 214q7 11 22 11h50q19 0 19 -19v-213h24zM103 472h103v141z" />
    <glyph glyph-name="five.numr" horiz-adv-x="328" 
d="M176 578q57 0 92.5 -34t35.5 -89q0 -58 -38.5 -93.5t-101.5 -35.5q-51 0 -89 27q-35 27 -44 69q-3 20 18 20h38q15 0 21 -15q14 -32 56 -32q30 0 46.5 16.5t16.5 44.5t-16.5 44t-44.5 16q-30 0 -49 -19q-13 -10 -24 -10h-42q-20 0 -17 20l23 179q3 18 20 18h186
q19 0 19 -19v-30q0 -19 -19 -19h-143l-10 -72q31 14 66 14z" />
    <glyph glyph-name="six.numr" horiz-adv-x="343" 
d="M192 575q55 0 90.5 -34t35.5 -88q0 -57 -38 -92t-101 -35q-61 0 -101 37q-46 46 -46 149q0 98 39.5 148.5t112.5 50.5q101 0 124 -87q6 -21 -17 -21h-37q-14 0 -22 15q-12 26 -50 26q-66 0 -74 -99q33 30 84 30zM178 391q28 0 45.5 17t17.5 45t-17 44.5t-45 16.5t-46 -17
t-18 -44t17.5 -44.5t45.5 -17.5z" />
    <glyph glyph-name="seven.numr" horiz-adv-x="290" 
d="M250 704q19 0 19 -19v-31q0 -14 -5 -24l-129 -283q-6 -14 -22 -14h-42q-23 0 -14 22l128 279h-145q-19 0 -19 19v32q0 19 19 19h210z" />
    <glyph glyph-name="eight.numr" horiz-adv-x="342" 
d="M171 326q-66 0 -104 29.5t-38 78.5q0 66 65 93q-55 26 -55 83q0 45 35 73t97 28t97 -28t35 -73q0 -56 -55 -83q65 -27 65 -93q0 -49 -38 -78.5t-104 -29.5zM171 555q56 0 56 45q0 21 -14.5 33.5t-41.5 12.5q-56 0 -56 -46q0 -45 56 -45zM171 391q64 0 64 50q0 49 -64 49
t-64 -49q0 -23 16.5 -36.5t47.5 -13.5z" />
    <glyph glyph-name="nine.numr" horiz-adv-x="345" 
d="M267 673q46 -45 46 -147q0 -99 -39 -149.5t-113 -50.5q-50 0 -83 24q-33 25 -43 63q-2 10 3 15.5t15 5.5h39q13 0 21 -15q15 -27 50 -27q65 0 73 97q-32 -28 -83 -28q-55 0 -90.5 34t-35.5 89q0 56 38 91.5t101 35.5q62 0 101 -38zM166 522q28 0 46 17.5t18 43.5
q0 28 -17.5 45.5t-45.5 17.5t-45.5 -17t-17.5 -45t17 -45t45 -17z" />
    <glyph glyph-name="zero.sups" horiz-adv-x="372" 
d="M186 376q-72 0 -113 50.5t-41 142.5q0 91 41 141.5t113 50.5t113 -50.5t41 -141.5q0 -92 -41 -142.5t-113 -50.5zM186 447q76 0 76 122q0 60 -20.5 90t-55.5 30q-75 0 -75 -120q0 -122 75 -122z" />
    <glyph glyph-name="one.sups" horiz-adv-x="234" 
d="M166 754q19 0 19 -19v-333q0 -19 -19 -19h-40q-19 0 -19 19v271l-58 -34q-9 -6 -16 -2t-7 16v36q0 14 13 23l63 36q12 6 24 6h40z" />
    <glyph glyph-name="two.sups" horiz-adv-x="321" 
d="M272 452q19 0 19 -19v-31q0 -19 -19 -19h-223q-19 0 -19 19v11q0 62 18 95t76 61l45 22q49 25 49 56q0 20 -13.5 32t-37.5 12q-46 0 -56 -44q-5 -17 -20 -17h-41q-20 0 -19 19q6 52 41 82t94 30q60 0 94.5 -30t34.5 -83q0 -39 -21.5 -65t-66.5 -49l-45 -21
q-28 -13 -39.5 -26t-15.5 -35h165z" />
    <glyph glyph-name="three.sups" horiz-adv-x="328" 
d="M234 572q67 -22 67 -88q0 -49 -36 -78.5t-101 -29.5q-59 0 -94 29q-34 28 -40 73q-3 20 18 20h40q14 0 21 -17q11 -35 57 -35q26 0 41 13t15 35q0 43 -58 43h-13q-19 0 -19 19v29q0 19 19 19h11q26 0 41 12t15 33q0 41 -52 41q-43 0 -55 -35q-5 -18 -20 -18h-40
q-21 0 -18 20q7 43 38 73q36 31 94 31q61 0 95.5 -28t34.5 -74q0 -63 -61 -87z" />
    <glyph glyph-name="four.sups" horiz-adv-x="343" 
d="M302 522q19 0 19 -19v-28q0 -19 -19 -19h-24v-54q0 -19 -19 -19h-34q-19 0 -19 19v54h-164q-19 0 -19 19v30q0 13 7 24l157 214q7 11 22 11h50q19 0 19 -19v-213h24zM103 522h103v141z" />
    <glyph glyph-name="five.sups" horiz-adv-x="328" 
d="M176 628q57 0 92.5 -34t35.5 -89q0 -58 -38.5 -93.5t-101.5 -35.5q-51 0 -89 27q-35 27 -44 69q-3 20 18 20h38q15 0 21 -15q14 -32 56 -32q30 0 46.5 16.5t16.5 44.5t-16.5 44t-44.5 16q-30 0 -49 -19q-13 -10 -24 -10h-42q-20 0 -17 20l23 179q3 18 20 18h186
q19 0 19 -19v-30q0 -19 -19 -19h-143l-10 -72q31 14 66 14z" />
    <glyph glyph-name="six.sups" horiz-adv-x="343" 
d="M192 625q55 0 90.5 -34t35.5 -88q0 -57 -38 -92t-101 -35q-61 0 -101 37q-46 46 -46 149q0 98 39.5 148.5t112.5 50.5q101 0 124 -87q6 -21 -17 -21h-37q-14 0 -22 15q-12 26 -50 26q-66 0 -74 -99q33 30 84 30zM178 441q28 0 45.5 17t17.5 45t-17 44.5t-45 16.5t-46 -17
t-18 -44t17.5 -44.5t45.5 -17.5z" />
    <glyph glyph-name="seven.sups" horiz-adv-x="290" 
d="M250 754q19 0 19 -19v-31q0 -14 -5 -24l-129 -283q-6 -14 -22 -14h-42q-23 0 -14 22l128 279h-145q-19 0 -19 19v32q0 19 19 19h210z" />
    <glyph glyph-name="eight.sups" horiz-adv-x="342" 
d="M171 376q-66 0 -104 29.5t-38 78.5q0 66 65 93q-55 26 -55 83q0 45 35 73t97 28t97 -28t35 -73q0 -56 -55 -83q65 -27 65 -93q0 -49 -38 -78.5t-104 -29.5zM171 605q56 0 56 45q0 21 -14.5 33.5t-41.5 12.5q-56 0 -56 -46q0 -45 56 -45zM171 441q64 0 64 50q0 49 -64 49
t-64 -49q0 -23 16.5 -36.5t47.5 -13.5z" />
    <glyph glyph-name="nine.sups" horiz-adv-x="345" 
d="M267 723q46 -45 46 -147q0 -99 -39 -149.5t-113 -50.5q-50 0 -83 24q-33 25 -43 63q-2 10 3 15.5t15 5.5h39q13 0 21 -15q15 -27 50 -27q65 0 73 97q-32 -28 -83 -28q-55 0 -90.5 34t-35.5 89q0 56 38 91.5t101 35.5q62 0 101 -38zM166 572q28 0 46 17.5t18 43.5
q0 28 -17.5 45.5t-45.5 17.5t-45.5 -17t-17.5 -45t17 -45t45 -17z" />
    <glyph glyph-name="colon.case" horiz-adv-x="272" 
d="M136 447q-32 0 -51 19.5t-19 50.5t19.5 50.5t50.5 19.5t50.5 -19.5t19.5 -50.5t-19 -50.5t-51 -19.5zM136 115q-31 0 -50.5 19t-19.5 50q0 32 19 51t51 19t51 -19t19 -51q0 -31 -19.5 -50t-50.5 -19z" />
    <glyph glyph-name="exclamdown.case" horiz-adv-x="289" 
d="M145 709q31 0 50.5 -19.5t19.5 -50.5t-19.5 -50.5t-50.5 -19.5t-50.5 19.5t-19.5 50.5t19.5 50.5t50.5 19.5zM120 477h50q19 0 19 -19l11 -439q0 -19 -18 -19h-75q-18 0 -18 19l12 439q0 19 19 19z" />
    <glyph glyph-name="questiondown.case" horiz-adv-x="496" 
d="M272 710q32 0 51 -19t19 -51q0 -31 -19.5 -50.5t-50.5 -19.5t-50.5 19.5t-19.5 50.5q0 32 19 51t51 19zM303 482q19 0 19 -19v-28q0 -50 -14.5 -79t-61.5 -68l-48 -40q-50 -42 -50 -85q0 -38 24 -59t69 -21q49 0 80.5 24.5t39.5 69.5q3 18 20 18h61q21 0 18 -20
q-8 -85 -65.5 -135t-150.5 -50q-90 0 -143.5 47t-53.5 124q0 41 19.5 75.5t68.5 75.5l47 39q26 22 33.5 38.5t7.5 47.5v26q0 19 19 19h61z" />
    <glyph glyph-name="periodcentered.case" horiz-adv-x="292" 
d="M146 280q-31 0 -50.5 19t-19.5 50t19 50.5t51 19.5t51 -19.5t19 -50.5t-19.5 -50t-50.5 -19z" />
    <glyph glyph-name="bullet.case" horiz-adv-x="523" 
d="M261 205q-66 0 -110 44.5t-44 109.5q0 66 44 110.5t110 44.5t110.5 -45t44.5 -110t-44.5 -109.5t-110.5 -44.5z" />
    <glyph glyph-name="parenleft.case" horiz-adv-x="333" 
d="M239 -75q-16 -11 -27 3q-69 88 -107 199.5t-38 222.5t38 222.5t107 199.5q11 14 27 3l42 -29q15 -10 4 -26q-54 -72 -87 -169.5t-33 -200.5t33 -200.5t87 -169.5q11 -16 -4 -26z" />
    <glyph glyph-name="parenright.case" horiz-adv-x="334" 
d="M95 -75l-43 29q-14 11 -4 26q54 72 87 169.5t33 200.5t-33 200.5t-87 169.5q-10 15 4 26l43 29q15 12 26 -3q70 -87 107.5 -198.5t37.5 -223.5t-37.5 -223.5t-107.5 -198.5q-11 -15 -26 -3z" />
    <glyph glyph-name="braceleft.case" horiz-adv-x="394" 
d="M268 -68q-74 0 -107 31.5t-33 101.5v182q0 30 -13.5 43t-42.5 15q-19 1 -19 20v50q0 19 19 20q30 2 43 15t13 43v182q0 70 33 101.5t107 31.5h63q19 0 19 -19v-48q0 -19 -19 -19h-48q-58 0 -58 -57v-165q0 -89 -79 -109v-2q79 -20 79 -109v-165q0 -57 58 -57h48
q19 0 19 -19v-48q0 -19 -19 -19h-63z" />
    <glyph glyph-name="braceright.case" horiz-adv-x="394" 
d="M126 -68h-63q-19 0 -19 19v48q0 19 19 19h49q58 0 58 57v165q0 89 78 109v2q-78 20 -78 109v165q0 57 -58 57h-49q-19 0 -19 19v48q0 19 19 19h63q74 0 107 -31.5t33 -101.5v-182q0 -30 13 -43t44 -15q19 -2 19 -20v-50q0 -18 -19 -20q-30 -2 -43.5 -15t-13.5 -43v-182
q0 -70 -33 -101.5t-107 -31.5z" />
    <glyph glyph-name="bracketleft.case" horiz-adv-x="373" 
d="M311 682h-126v-664h126q19 0 19 -19v-48q0 -19 -19 -19h-203q-19 0 -19 19v798q0 19 19 19h203q19 0 19 -19v-48q0 -19 -19 -19z" />
    <glyph glyph-name="bracketright.case" horiz-adv-x="373" 
d="M265 768q19 0 19 -19v-798q0 -19 -19 -19h-203q-19 0 -19 19v48q0 19 19 19h126v664h-126q-19 0 -19 19v48q0 19 19 19h203z" />
    <glyph glyph-name="hyphen.case" horiz-adv-x="393" 
d="M69 299q-19 0 -19 19v54q0 19 19 19h254q19 0 19 -19v-54q0 -19 -19 -19h-254z" />
    <glyph glyph-name="endash.case" horiz-adv-x="500" 
d="M69 299q-19 0 -19 19v54q0 19 19 19h362q19 0 19 -19v-54q0 -19 -19 -19h-362z" />
    <glyph glyph-name="emdash.case" horiz-adv-x="1000" 
d="M69 299q-19 0 -19 19v54q0 19 19 19h862q19 0 19 -19v-54q0 -19 -19 -19h-862z" />
    <glyph glyph-name="guillemotleft.case" horiz-adv-x="544" 
d="M246 533q12 0 15.5 -6.5t-2.5 -16.5l-105 -161l105 -161q6 -10 2.5 -16.5t-15.5 -6.5h-67q-14 0 -23 12l-103 159q-8 13 0 26l103 159q9 12 23 12h67zM374 349l105 -161q6 -10 2.5 -16.5t-15.5 -6.5h-67q-14 0 -23 12l-103 159q-8 13 0 26l103 159q9 12 23 12h67
q12 0 15.5 -6.5t-2.5 -16.5z" />
    <glyph glyph-name="guillemotright.case" horiz-adv-x="544" 
d="M168 521l102 -159q10 -13 0 -26l-102 -159q-9 -12 -23 -12h-68q-11 0 -14.5 6.5t2.5 16.5l105 161l-105 161q-6 10 -2.5 16.5t14.5 6.5h68q14 0 23 -12zM490 362q10 -13 0 -26l-102 -159q-9 -12 -23 -12h-68q-11 0 -14.5 6.5t2.5 16.5l105 161l-105 161q-6 10 -2.5 16.5
t14.5 6.5h68q14 0 23 -12z" />
    <glyph glyph-name="guilsinglleft.case" horiz-adv-x="324" 
d="M154 349l105 -161q6 -10 2.5 -16.5t-15.5 -6.5h-67q-14 0 -23 12l-103 159q-8 13 0 26l103 159q9 12 23 12h67q12 0 15.5 -6.5t-2.5 -16.5z" />
    <glyph glyph-name="guilsinglright.case" horiz-adv-x="324" 
d="M270 362q10 -13 0 -26l-102 -159q-9 -12 -23 -12h-68q-11 0 -14.5 6.5t2.5 16.5l105 161l-105 161q-6 10 -2.5 16.5t14.5 6.5h68q14 0 23 -12z" />
    <glyph glyph-name="cent.tf" horiz-adv-x="650" 
d="M144 511q55 67 147 81v100q0 19 19 19h43q19 0 19 -19v-99q75 -10 125.5 -54.5t64.5 -112.5v-5q0 -15 -18 -15h-64q-16 0 -21 16q-21 67 -92 80v-304q70 14 91 79q5 16 21 16h65q18 0 18 -14v-4q-14 -68 -64.5 -113t-125.5 -55v-99q0 -19 -19 -19h-43q-19 0 -19 19v100
q-92 14 -147.5 81t-55.5 161t56 161zM190 350q0 -57 28.5 -97.5t77.5 -52.5v300q-49 -12 -77 -52q-29 -41 -29 -98z" />
    <glyph glyph-name="currency.tf" horiz-adv-x="650" 
d="M494 227l66 -66q13 -13 0 -27l-19 -19q-14 -13 -27 0l-69 69q-51 -32 -114 -32q-68 0 -121 37l-74 -74q-13 -13 -27 0l-19 19q-13 14 0 27l74 74q-36 50 -36 115t36 115l-74 74q-13 13 0 27l19 19q14 13 27 0l74 -74q53 37 121 37q63 0 114 -32l69 69q13 13 27 0l19 -19
q13 -14 0 -27l-66 -66q41 -54 41 -123t-41 -123zM331 236q49 0 79.5 32.5t30.5 81.5t-30.5 81.5t-79.5 32.5q-48 0 -78 -32.5t-30 -81.5q0 -50 29.5 -82t78.5 -32z" />
    <glyph glyph-name="dollar.tf" horiz-adv-x="650" 
d="M554 224q0 -77 -50 -123.5t-138 -54.5v-49q0 -19 -19 -19h-42q-19 0 -19 19v49q-81 9 -129 50t-59 108q-3 20 18 20h63q15 0 20 -17q16 -61 92 -73v182l-15 3q-175 33 -175 167q0 71 48 116.5t137 53.5v47q0 19 19 19h42q19 0 19 -19v-49q78 -9 123.5 -50.5t53.5 -110.5
q3 -20 -18 -20h-62q-16 0 -19 18q-10 64 -84 76v-172l33 -6q161 -31 161 -165zM200 487q0 -31 20.5 -48.5t70.5 -29.5v160q-91 -10 -91 -82zM360 133q95 11 95 86q0 65 -95 83v-169z" />
    <glyph glyph-name="Euro.tf" horiz-adv-x="650" 
d="M593 192q22 0 16 -24q-20 -87 -79.5 -133t-142.5 -46q-101 0 -169.5 68t-90.5 187h-64q-19 0 -19 19v29q0 19 19 19h56q-1 13 -1 39t1 39h-56q-19 0 -19 19v29q0 19 19 19h64q22 119 90.5 187t169.5 68q84 0 143.5 -47t78.5 -135q6 -21 -16 -21h-65q-17 0 -20 17
q-11 45 -43 69t-77 24q-58 0 -98.5 -41t-56.5 -121h204q19 0 19 -19v-29q0 -19 -19 -19h-213q-1 -12 -1 -39t1 -39h213q19 0 19 -19v-29q0 -19 -19 -19h-204q16 -80 56.5 -121t98.5 -41q45 0 77 24t43 69q3 17 20 17h65z" />
    <glyph glyph-name="florin.tf" horiz-adv-x="650" 
d="M524 706q17 -3 17 -21v-50q0 -10 -5 -14.5t-13 -3.5q-6 1 -20 1q-40 0 -58 -16.5t-26 -62.5l-19 -100h110q19 0 19 -19v-38q0 -19 -19 -19h-125l-65 -342q-15 -80 -53.5 -115t-102.5 -35q-19 0 -49 4q-16 3 -16 21v51q0 9 5 14t13 4q6 -1 19 -1q41 0 58.5 16.5t26.5 62.5
l61 320h-96q-19 0 -19 19v38q0 19 19 19h110l23 122q15 80 54 115t103 35q25 0 48 -5z" />
    <glyph glyph-name="sterling.tf" horiz-adv-x="650" 
d="M555 95q19 0 19 -19v-57q0 -19 -19 -19h-449q-19 0 -19 19v57q0 19 19 19h51v197h-51q-19 0 -19 19v44q0 19 19 19h51v122q0 102 54 158.5t154 56.5q90 0 144 -46t63 -141q2 -20 -18 -20h-63q-18 0 -20 19q-10 93 -103 93q-109 0 -109 -128v-114h217q19 0 19 -19v-44
q0 -19 -19 -19h-217v-197h296z" />
    <glyph glyph-name="yen.tf" horiz-adv-x="650" 
d="M586 700q11 0 14.5 -6.5t-1.5 -16.5l-188 -326h123q19 0 19 -19v-31q0 -19 -19 -19h-158v-84h158q19 0 19 -19v-31q0 -19 -19 -19h-158v-110q0 -19 -19 -19h-64q-19 0 -19 19v110h-159q-19 0 -19 19v31q0 19 19 19h159v84h-159q-19 0 -19 19v31q0 19 19 19h124l-189 326
q-5 10 -1 16.5t15 6.5h73q16 0 22 -13l165 -302h1l165 302q7 13 22 13h74z" />
    <glyph glyph-name="plus.tf" 
d="M503 362q19 0 19 -19v-52q0 -19 -19 -19h-155v-167q0 -19 -19 -19h-58q-19 0 -19 19v167h-155q-19 0 -19 19v52q0 19 19 19h155v167q0 19 19 19h58q19 0 19 -19v-167h155z" />
    <glyph glyph-name="minus.tf" 
d="M97 272q-19 0 -19 19v52q0 19 19 19h406q19 0 19 -19v-52q0 -19 -19 -19h-406z" />
    <glyph glyph-name="multiply.tf" 
d="M139 121l-35 35q-13 13 0 26l135 135l-135 135q-13 13 0 26l35 35q13 13 26 0l135 -135l135 135q13 13 26 0l35 -35q13 -13 0 -26l-135 -135l135 -135q13 -13 0 -26l-35 -35q-13 -13 -26 0l-135 135l-135 -135q-13 -13 -26 0z" />
    <glyph glyph-name="divide.tf" 
d="M300 433q-29 0 -47.5 18.5t-18.5 46.5t18.5 46t47.5 18t47.5 -18t18.5 -46t-18.5 -46.5t-47.5 -18.5zM97 273q-19 0 -19 19v50q0 19 19 19h406q19 0 19 -19v-50q0 -19 -19 -19h-406zM300 72q-29 0 -47.5 18t-18.5 46t18.5 46.5t47.5 18.5t47.5 -18.5t18.5 -46.5
t-18.5 -46t-47.5 -18z" />
    <glyph glyph-name="equal.tf" 
d="M97 374q-19 0 -19 19v50q0 19 19 19h406q19 0 19 -19v-50q0 -19 -19 -19h-406zM97 170q-19 0 -19 19v50q0 19 19 19h406q19 0 19 -19v-50q0 -19 -19 -19h-406z" />
    <glyph glyph-name="notequal.tf" 
d="M503 374h-137l-54 -116h191q19 0 19 -19v-50q0 -19 -19 -19h-232l-51 -110q-8 -15 -22 -15h-38q-25 0 -15 23l47 102h-95q-19 0 -19 19v50q0 19 19 19h136l54 116h-190q-19 0 -19 19v50q0 19 19 19h231l52 111q8 14 22 14h38q11 0 15.5 -6t-0.5 -16l-48 -103h96
q19 0 19 -19v-50q0 -19 -19 -19z" />
    <glyph glyph-name="greater.tf" 
d="M100 105q-22 -8 -22 15v59q0 15 15 22l308 115v2l-308 115q-15 7 -15 22v59q0 23 22 15l407 -159q15 -7 15 -22v-62q0 -15 -15 -22z" />
    <glyph glyph-name="less.tf" 
d="M500 105l-407 159q-15 7 -15 22v62q0 15 15 22l407 159q22 8 22 -15v-59q0 -15 -15 -22l-308 -115v-2l308 -115q15 -7 15 -22v-59q0 -23 -22 -15z" />
    <glyph glyph-name="greaterequal.tf" 
d="M100 155q-22 -8 -22 15v57q0 15 15 22l309 113v2l-309 113q-15 7 -15 22v57q0 23 22 15l407 -155q15 -7 15 -22v-62q0 -15 -15 -22zM97 0q-19 0 -19 19v52q0 19 19 19h406q19 0 19 -19v-52q0 -19 -19 -19h-406z" />
    <glyph glyph-name="lessequal.tf" 
d="M500 155l-407 155q-15 7 -15 22v62q0 15 15 22l407 155q22 8 22 -15v-57q0 -15 -15 -22l-309 -113v-2l309 -113q15 -7 15 -22v-57q0 -23 -22 -15zM97 0q-19 0 -19 19v52q0 19 19 19h406q19 0 19 -19v-52q0 -19 -19 -19h-406z" />
    <glyph glyph-name="plusminus.tf" 
d="M503 427q19 0 19 -19v-52q0 -19 -19 -19h-155v-153q0 -19 -19 -19h-58q-19 0 -19 19v153h-155q-19 0 -19 19v52q0 19 19 19h155v153q0 19 19 19h58q19 0 19 -19v-153h155zM503 90q19 0 19 -19v-52q0 -19 -19 -19h-406q-19 0 -19 19v52q0 19 19 19h406z" />
    <glyph glyph-name="approxequal.tf" 
d="M405 352q-37 0 -105.5 21.5t-104.5 21.5q-47 0 -94 -27q-10 -6 -16.5 -2.5t-6.5 14.5v49q0 14 12 23q49 32 107 32q35 0 104.5 -21.5t102.5 -21.5q49 0 96 26q10 6 16 3t6 -14v-49q0 -14 -13 -24q-49 -31 -104 -31zM405 148q-37 0 -105 22t-105 22q-48 0 -94 -28
q-10 -6 -16.5 -2.5t-6.5 15.5v49q0 14 12 23q51 32 107 32q35 0 104.5 -22t102.5 -22q50 0 96 27q22 14 22 -12v-49q0 -14 -13 -23q-50 -32 -104 -32z" />
    <glyph glyph-name="asciitilde.tf" 
d="M405 251q-37 0 -105 22t-105 22q-48 0 -94 -28q-10 -6 -16.5 -2.5t-6.5 15.5v49q0 14 12 23q51 32 107 32q35 0 104.5 -22t102.5 -22q50 0 96 27q22 12 22 -12v-49q0 -14 -13 -23q-50 -32 -104 -32z" />
    <glyph glyph-name="logicalnot.tf" 
d="M503 363q19 0 19 -19v-156q0 -19 -19 -19h-57q-19 0 -19 19v84h-330q-19 0 -19 19v53q0 19 19 19h406z" />
    <glyph glyph-name="at.case" horiz-adv-x="829" 
d="M555 501q19 0 19 -19v-172q0 -66 47 -66q33 0 54 35t21 95q0 120 -76 189t-192 69q-126 0 -207 -80.5t-81 -206.5q0 -127 81.5 -202.5t216.5 -75.5q84 0 164 33q23 8 23 -14v-39q0 -15 -12 -21q-79 -37 -179 -37q-167 0 -272.5 98t-105.5 256q0 161 107 264.5t263 103.5
q147 0 249.5 -92.5t102.5 -234.5q0 -92 -45 -150.5t-114 -58.5q-39 0 -67 18.5t-40 51.5q-12 -33 -43 -50.5t-71 -17.5q-66 0 -109.5 46.5t-43.5 120.5t43.5 121t109.5 47q76 0 100 -55h3v25q0 19 19 19h35zM414 252q36 0 59 25t23 67t-23 67.5t-59 25.5q-37 0 -60.5 -25
t-23.5 -68q0 -42 23.5 -67t60.5 -25z" />
    </font>
</defs>
</svg>
